<?xml version="1.0" standalone="no"?>
<!DOCTYPE svg PUBLIC "-//W3C//DTD SVG 1.1//EN" "http://www.w3.org/Graphics/SVG/1.1/DTD/svg11.dtd" >
<svg xmlns="http://www.w3.org/2000/svg">
<metadata>
This is a custom SVG font generated by IcoMoon.
<iconset grid="16"></iconset>
</metadata>
<defs>
<font id="Climacons-Font" horiz-adv-x="512" >
<font-face units-per-em="512" ascent="480" descent="-32" />
<missing-glyph horiz-adv-x="512" />
<glyph unicode="&#xe025;" d="M 255.87,96.00c-2.242,0.00-5.195,0.00-8.50,0.00l 28.684,35.293
		c 25.447,8.462, 43.816,32.426, 43.816,60.711c0.00,35.348-28.65,63.992-64.00,63.992c-12.805,0.00-24.666-3.844-34.668-10.321
		c-9.861,42.536-47.795,74.329-93.333,74.329c-53.014,0.00-95.996-42.981-95.996-96.004c0.00-43.576, 29.059-80.314, 68.837-92.043
		l-10.79-30.23C 37.757,117.90-0.13,166.524-0.13,224.00c0.00,70.688, 57.312,128.00, 128.00,128.00c 48.037,0.00, 89.84-26.495, 111.733-65.641
		C 244.917,287.273, 250.30,288.00, 255.87,288.00c 53.023,0.00, 96.004-42.974, 96.004-95.996S 308.894,96.00, 255.87,96.00z M 159.874,208.006l 79.995,0.00 
		l-47.998-80.01l 56.00,0.00 l-103.999-128.00L 172.672,96.00L 119.87,96.00 L 159.874,208.006z" horiz-adv-x="352"  />
<glyph unicode="&#xe000;" d="M 127.999,96.00C 57.311,96.00,0.00,153.312,0.00,224.00
		C0.00,294.697, 57.311,352.00, 127.999,352.00c 48.036,0.00, 89.838-26.496, 111.731-65.633c 5.312,0.907, 10.703,1.641, 16.268,1.641
		c 53.021,0.00, 96.004-42.989, 96.004-96.004c0.00-53.014-42.982-96.004-96.004-96.004C 233.792,96.00, 153.579,96.00, 127.999,96.00z
		 M 255.997,128.004c 35.348,0.00, 64.006,28.66, 64.006,64.00c0.00,35.348-28.658,64.00-64.006,64.00c-12.799,0.00-24.66-3.852-34.668-10.329
		c-9.854,42.536-47.794,74.329-93.331,74.329c-53.014,0.00-95.995-42.982-95.995-96.005c0.00-53.013, 42.981-95.996, 95.995-95.996
		C 156.931,128.004, 231.837,128.004, 255.997,128.004z" horiz-adv-x="352"  />
<glyph unicode="&#xe002;" d="M 334.565,247.074L 334.565,247.074c 10.945-15.604, 17.432-34.561, 17.432-55.069
		c0.00-53.015-42.974-96.005-95.996-96.005c-22.206,0.00-102.419,0.00-128.00,0.00C 57.305,96.00,0.00,153.312,0.00,224.00
		c0.00,70.697, 57.305,128.001, 128.001,128.001c 16.018,0.00, 31.316-3.00, 45.442-8.376l0.00,0.00c 13.08,37.458, 48.632,64.383, 90.559,64.383
		c 6.04,0.00, 11.932-0.625, 17.658-1.696c-1.047-4.602-1.656-9.384-1.656-14.307c0.00-35.348, 28.652-64.00, 63.992-64.00
		c 4.931,0.00, 9.705,0.609, 14.313,1.664c 1.062-5.735, 1.688-11.626, 1.688-17.666C 359.998,286.931, 350.31,264.17, 334.565,247.074z
		 M 32.004,224.00c0.00-53.014, 42.975-95.996, 95.997-95.996c 28.933,0.00, 103.841,0.00, 128.00,0.00c 35.349,0.00, 64.00,28.66, 64.00,64.001
		c0.00,35.348-28.651,64.00-64.00,64.00c-12.799,0.00-24.667-3.853-34.676-10.329c-9.854,42.536-47.788,74.329-93.324,74.329
		C 74.979,320.005, 32.004,277.023, 32.004,224.00z M 188.414,336.78c 0.008,0.00, 0.016,0.00, 0.016,0.00S 188.422,336.78, 188.414,336.78z
		 M 249.695,374.348c-23.206-5.313-41.403-23.284-47.404-46.209l0.00,0.00c 15.346-10.978, 28.191-25.222, 37.441-41.771
		c 5.313,0.907, 10.697,1.641, 16.269,1.641c 20.948,0.00, 40.271-6.79, 56.046-18.175l0.00,0.00c 6.868,7.838, 11.885,17.347, 14.291,27.863
		C 287.505,304.933, 256.923,335.499, 249.695,374.348z" horiz-adv-x="384"  />
<glyph unicode="&#xe003;" d="M 287.878,101.578l0.00,35.06 
		c 19.104,11.071, 31.996,31.691, 31.996,55.366c0.00,35.348-28.652,64.00-64.00,64.00c-12.807,0.00-24.674-3.852-34.676-10.33
		c-9.854,42.537-47.788,74.33-93.325,74.33c-53.021,0.00-95.996-42.982-95.996-96.004c0.00-28.394, 12.40-53.834, 31.996-71.407l0.00-39.325 
		c-38.224,22.143-64.00,63.383-64.00,110.732c0.00,70.697, 57.304,128.00, 128.00,128.00c 48.037,0.00, 89.84-26.496, 111.733-65.633
		c 5.312,0.907, 10.689,1.641, 16.268,1.641c 53.023,0.00, 95.996-42.99, 95.996-96.004C 351.87,150.225, 325.134,114.775, 287.878,101.578z
		 M 111.872,192.004c 8.838,0.00, 16.002-7.165, 16.002-16.002l0.00-31.997 c0.00-8.837-7.164-16.002-16.002-16.002
		c-8.837,0.00-16.002,7.165-16.002,16.002l0.00,31.997 C 95.87,184.839, 103.035,192.004, 111.872,192.004z M 111.872,95.999
		c 8.838,0.00, 16.002-7.157, 16.002-15.994l0.00-31.996 c0.00-8.845-7.164-16.002-16.002-16.002c-8.837,0.00-16.002,7.157-16.002,16.002l0.00,31.996 
		C 95.87,88.842, 103.035,95.999, 111.872,95.999z M 175.872,160.008c 8.838,0.00, 16.002-7.165, 16.002-16.003l0.00-32.004 
		c0.00-8.829-7.164-16.002-16.002-16.002c-8.837,0.00-15.994,7.173-15.994,16.002l0.00,32.004 
		C 159.877,152.843, 167.035,160.008, 175.872,160.008z M 175.872,64.003c 8.838,0.00, 16.002-7.165, 16.002-15.994l0.00-32.004 
		c0.00-8.837-7.164-16.002-16.002-16.002c-8.837,0.00-15.994,7.165-15.994,16.002l0.00,32.004 
		C 159.877,56.838, 167.035,64.003, 175.872,64.003z M 239.872,192.004c 8.838,0.00, 16.002-7.165, 16.002-16.002l0.00-31.997 
		c0.00-8.837-7.164-16.002-16.002-16.002c-8.836,0.00-16.002,7.165-16.002,16.002l0.00,31.997 C 223.87,184.839, 231.036,192.004, 239.872,192.004
		z M 239.872,95.999c 8.838,0.00, 16.002-7.157, 16.002-15.994l0.00-31.996 c0.00-8.845-7.164-16.002-16.002-16.002
		c-8.836,0.00-16.002,7.157-16.002,16.002l0.00,31.996 C 223.87,88.842, 231.036,95.999, 239.872,95.999z" horiz-adv-x="352"  />
<glyph unicode="&#xe004;" d="M 415.996,272.003L 384.00,272.003 c-8.836,0.00-16.002,7.157-16.002,16.002
		c0.00,8.829, 7.166,15.994, 16.002,15.994l 31.996,0.00 c 8.838,0.00, 16.002-7.165, 16.002-15.994C 431.998,279.16, 424.834,272.003, 415.996,272.003z
		 M 353.137,378.516c-6.25-6.251-16.385-6.251-22.627,0.00c-6.251,6.243-6.251,16.377,0.00,22.62l 22.627,22.628
		c 6.244,6.25, 16.377,6.25, 22.629,0.00c 6.242-6.243, 6.242-16.377,0.00-22.628L 353.137,378.516z M 329.557,253.641L 329.557,253.641
		c 13.994-16.682, 22.439-38.16, 22.439-61.64c0.00-41.779-26.737-77.229-64.00-90.426l0.00,35.06 C 307.107,147.706, 320.00,168.326, 320.00,192.001
		c0.00,35.348-28.66,64.00-64.00,64.00c-12.807,0.00-24.675-3.853-34.676-10.329c-9.854,42.536-47.787,74.329-93.324,74.329
		c-53.022,0.00-96.004-42.982-96.004-96.005c0.00-28.394, 12.407-53.834, 32.004-71.406l0.00-39.325 C 25.775,135.407,0.00,176.647,0.00,223.996
		c0.00,70.697, 57.303,128.001, 128.00,128.001c 12.58,0.00, 24.714-1.859, 36.191-5.235c 17.564,22.62, 44.943,37.239, 75.807,37.239
		c 53.022,0.00, 95.996-42.982, 95.996-95.996C 335.994,275.878, 333.658,264.322, 329.557,253.641z M 239.998,351.997
		c-17.705,0.00-33.723-7.188-45.311-18.799c 18.729-11.486, 34.293-27.621, 45.045-46.834c 5.312,0.907, 10.689,1.641, 16.268,1.641
		c 17.002,0.00, 32.949-4.469, 46.803-12.22l0.00,0.00c 0.766,3.954, 1.195,8.032, 1.195,12.22C 303.998,323.345, 275.346,351.997, 239.998,351.997z
		 M 239.998,416.005c-8.837,0.00-16.002,7.157-16.002,15.994L 223.996,463.996 c0.00,8.845, 7.165,16.002, 16.002,16.002S 256.00,472.84, 256.00,463.996L 256.00,432.00 
		C 256.00,423.162, 248.835,416.005, 239.998,416.005z M 126.859,378.516l-22.629,22.62c-6.242,6.25-6.242,16.385,0.00,22.628
		c 6.252,6.25, 16.378,6.25, 22.629,0.00l 22.627-22.628c 6.252-6.243, 6.252-16.377,0.00-22.62
		C 143.236,372.265, 133.109,372.265, 126.859,378.516z M 111.998,192.001c 8.837,0.00, 16.002-7.165, 16.002-16.002l0.00-31.997 
		c0.00-8.837-7.165-16.002-16.002-16.002c-8.838,0.00-16.002,7.165-16.002,16.002l0.00,31.997 C 95.996,184.836, 103.16,192.001, 111.998,192.001z
		 M 111.998,95.996c 8.837,0.00, 16.002-7.157, 16.002-15.994l0.00-31.996 c0.00-8.845-7.165-16.002-16.002-16.002
		c-8.838,0.00-16.002,7.157-16.002,16.002l0.00,31.996 C 95.996,88.839, 103.16,95.996, 111.998,95.996z M 175.998,160.005
		c 8.837,0.00, 16.002-7.165, 16.002-16.003l0.00-32.004 c0.00-8.829-7.165-16.002-16.002-16.002c-8.838,0.00-16.002,7.173-16.002,16.002l0.00,32.004 
		C 159.996,152.84, 167.16,160.005, 175.998,160.005z M 175.998,64.00c 8.837,0.00, 16.002-7.165, 16.002-15.994l0.00-32.004 
		c0.00-8.837-7.165-16.002-16.002-16.002c-8.838,0.00-16.002,7.165-16.002,16.002l0.00,32.004 C 159.996,56.835, 167.16,64.00, 175.998,64.00z
		 M 239.998,192.001c 8.837,0.00, 16.002-7.165, 16.002-16.002l0.00-31.997 c0.00-8.837-7.165-16.002-16.002-16.002s-16.002,7.165-16.002,16.002
		l0.00,31.997 C 223.996,184.836, 231.161,192.001, 239.998,192.001z M 239.998,95.996c 8.837,0.00, 16.002-7.157, 16.002-15.994l0.00-31.996 
		c0.00-8.845-7.165-16.002-16.002-16.002s-16.002,7.157-16.002,16.002l0.00,31.996 C 223.996,88.839, 231.161,95.996, 239.998,95.996z" horiz-adv-x="448"  />
<glyph unicode="&#xe005;" d="M 334.558,247.427L 334.558,247.427
		c 10.955-15.604, 17.439-34.559, 17.439-55.069c0.00-41.779-26.738-77.229-64.00-90.426l0.00,35.06 c 19.111,11.071, 31.996,31.691, 31.996,55.366
		c0.00,35.348-28.652,64.00-63.992,64.00c-12.807,0.00-24.676-3.852-34.676-10.33c-9.854,42.537-47.796,74.33-93.332,74.33
		c-53.016,0.00-95.997-42.982-95.997-96.004c0.00-28.394, 12.399-53.834, 31.996-71.407l0.00-39.325 C 25.776,135.765,0.00,177.005,0.00,224.354
		c0.00,70.697, 57.304,128.00, 127.993,128.00c 16.025,0.00, 31.316-3.00, 45.442-8.376l0.00,0.00c 13.088,37.458, 48.64,64.383, 90.559,64.383
		c 6.048,0.00, 11.931-0.625, 17.666-1.696c-1.055-4.602-1.664-9.384-1.664-14.307c0.00-35.348, 28.651-64.00, 64.00-64.00
		c 4.923,0.00, 9.704,0.609, 14.307,1.664c 1.07-5.735, 1.695-11.626, 1.695-17.666C 359.998,287.284, 350.302,264.523, 334.558,247.427z
		 M 249.688,374.701c-23.206-5.313-41.396-23.284-47.396-46.209l0.00,0.00c 15.338-10.978, 28.183-25.222, 37.442-41.771
		c 5.305,0.907, 10.688,1.641, 16.268,1.641c 20.939,0.00, 40.263-6.79, 56.046-18.174l0.00,0.00c 6.868,7.837, 11.884,17.346, 14.291,27.863
		C 287.497,305.286, 256.923,335.853, 249.688,374.701z M 111.998,192.358c 8.837,0.00, 15.995-7.165, 15.995-16.002l0.00-31.997 
		c0.00-8.837-7.158-16.002-15.995-16.002s-16.002,7.165-16.002,16.002l0.00,31.997 C 95.996,185.193, 103.161,192.358, 111.998,192.358z
		 M 111.998,96.354c 8.837,0.00, 15.995-7.157, 15.995-15.994l0.00-31.996 c0.00-8.845-7.158-16.002-15.995-16.002s-16.002,7.157-16.002,16.002
		l0.00,31.996 C 95.996,89.196, 103.161,96.354, 111.998,96.354z M 175.999,160.362c 8.836,0.00, 15.994-7.165, 15.994-16.003l0.00-32.004 
		c0.00-8.829-7.158-16.002-15.994-16.002c-8.838,0.00-16.002,7.173-16.002,16.002l0.00,32.004 
		C 159.997,153.197, 167.161,160.362, 175.999,160.362z M 175.999,64.357c 8.836,0.00, 15.994-7.165, 15.994-15.994l0.00-32.004 
		c0.00-8.837-7.158-16.002-15.994-16.002c-8.838,0.00-16.002,7.165-16.002,16.002l0.00,32.004 
		C 159.997,57.192, 167.161,64.357, 175.999,64.357z M 239.999,192.358c 8.837,0.00, 16.002-7.165, 16.002-16.002l0.00-31.997 
		c0.00-8.837-7.165-16.002-16.002-16.002c-8.838,0.00-16.002,7.165-16.002,16.002l0.00,31.997 
		C 223.997,185.193, 231.161,192.358, 239.999,192.358z M 239.999,96.354c 8.837,0.00, 16.002-7.157, 16.002-15.994l0.00-31.996 
		c0.00-8.845-7.165-16.002-16.002-16.002c-8.838,0.00-16.002,7.157-16.002,16.002l0.00,31.996 
		C 223.997,89.196, 231.161,96.354, 239.999,96.354z" horiz-adv-x="384"  />
<glyph unicode="&#xe006;" d="M 255.871,288.008c-5.572,0.00-10.955-0.734-16.268-1.641
				C 217.709,325.504, 175.907,352.00, 127.87,352.00C 57.182,352.00-0.131,294.696-0.131,224.00c0.00-47.943, 26.402-89.667, 65.423-111.592
				c 2.212,10.096, 7.134,19.722, 14.986,27.566l 0.453,0.453C 51.579,156.913, 31.873,188.136, 31.873,224.00
				c0.00,53.022, 42.982,96.004, 95.997,96.004c 45.537,0.00, 83.472-31.793, 93.332-74.33c 10.001,6.478, 21.87,10.33, 34.669,10.33
				c 35.348,0.00, 64.00-28.652, 64.00-64.00c0.00-27.559-17.455-50.983-41.889-60.00c 6.306-9.173, 9.557-19.769, 9.775-30.457
				c 37.324,13.158, 64.117,48.631, 64.117,90.457C 351.875,245.018, 308.893,288.008, 255.871,288.008z M 119.869,134.316l-16.971-16.971
				c-9.369-9.368-9.369-24.565,0.00-33.941c 9.376-9.368, 24.573-9.368, 33.941,0.00c 9.377,9.376, 9.377,24.573,0.00,33.941L 119.869,134.316z
				 M 175.876,70.324l-16.971-16.971c-9.376-9.376-9.376-24.573,0.00-33.941c 9.368-9.377, 24.565-9.377, 33.935,0.00
				c 9.375,9.368, 9.375,24.565,0.00,33.941L 175.876,70.324z M 231.875,134.316l-16.971-16.971c-9.376-9.368-9.376-24.565,0.00-33.941
				c 9.369-9.368, 24.566-9.368, 33.941,0.00c 9.369,9.376, 9.369,24.573,0.00,33.941L 231.875,134.316z" horiz-adv-x="384"  />
<glyph unicode="&#xe007;" d="M 416.006,271.86l-32.004,0.00 c-8.838,0.00-16.002,7.157-16.002,16.002
		c0.00,8.829, 7.164,15.994, 16.002,15.994l 32.004,0.00 c 8.836,0.00, 15.994-7.165, 15.994-15.994C 432.00,279.018, 424.842,271.86, 416.006,271.86z
		 M 353.139,378.374c-6.252-6.251-16.377-6.251-22.629,0.00c-6.25,6.243-6.25,16.377,0.00,22.62l 22.629,22.628
		c 6.25,6.25, 16.377,6.25, 22.627,0.00c 6.251-6.243, 6.251-16.377,0.00-22.628L 353.139,378.374z M 329.557,253.498L 329.557,253.498
		c 13.994-16.682, 22.448-38.16, 22.448-61.64l0.00,0.00c0.00-41.826-26.792-77.299-64.117-90.457c-0.219,10.688-3.47,21.284-9.774,30.457
		c 24.433,9.017, 41.888,32.441, 41.888,60.00c0.00,35.348-28.651,64.00-64.00,64.00c-12.806,0.00-24.667-3.853-34.669-10.329
		c-9.86,42.536-47.795,74.329-93.332,74.329c-53.014,0.00-95.996-42.982-95.996-96.005c0.00-11.235, 2.031-21.971, 5.579-31.995L 37.70,191.858 
		c 7.798-21.933, 23.159-40.264, 43.161-51.577l-0.461-0.453c-7.844-7.845-12.767-17.471-14.979-27.566
		c-30.012,16.862-52.412,45.49-61.227,79.597l0.00,0.00C 1.555,202.102,0.00,212.79,0.00,223.854c0.00,70.697, 57.312,128.001, 128.00,128.001
		c 12.58,0.00, 24.715-1.859, 36.192-5.235c 17.565,22.62, 44.951,37.239, 75.807,37.239c 53.022,0.00, 96.004-42.982, 96.004-95.996
		C 336.003,275.736, 333.659,264.18, 329.557,253.498z M 239.999,351.854c-17.698,0.00-33.716-7.188-45.303-18.799
		c 18.722-11.486, 34.294-27.621, 45.037-46.834c 5.313,0.907, 10.696,1.641, 16.268,1.641c 17.01,0.00, 32.949-4.469, 46.803-12.22l0.00,0.00
		c 0.766,3.954, 1.195,8.032, 1.195,12.22C 303.999,323.203, 275.348,351.854, 239.999,351.854z M 239.999,415.863
		c-8.837,0.00-15.994,7.157-15.994,15.994L 224.005,463.853 c0.00,8.845, 7.157,16.002, 15.994,16.002s 16.002-7.157, 16.002-16.002l0.00-31.996 
		C 256.001,423.02, 248.836,415.863, 239.999,415.863z M 126.867,378.374l-22.627,22.62c-6.252,6.25-6.252,16.385,0.00,22.628
		c 6.242,6.25, 16.377,6.25, 22.627,0.00l 22.629-22.628c 6.242-6.243, 6.242-16.377,0.00-22.62C 143.244,372.123, 133.11,372.123, 126.867,378.374
		z M 120.00,134.171l 16.971-16.971c 9.376-9.368, 9.376-24.565,0.00-33.941c-9.369-9.368-24.566-9.368-33.941,0.00
		c-9.369,9.376-9.369,24.573,0.00,33.941L 120.00,134.171z M 175.998,70.179l 16.972-16.971c 9.376-9.376, 9.376-24.573,0.00-33.941
		c-9.368-9.377-24.565-9.377-33.942,0.00c-9.367,9.368-9.367,24.565,0.00,33.941L 175.998,70.179z M 231.998,134.171l 16.971-16.971
		c 9.376-9.368, 9.376-24.565,0.00-33.941c-9.368-9.368-24.565-9.368-33.934,0.00c-9.377,9.376-9.377,24.573,0.00,33.941L 231.998,134.171z" horiz-adv-x="448"  />
<glyph unicode="&#xe008;" d="M 334.564,246.927c 10.955-15.604, 17.433-34.559, 17.433-55.069l0.00,0.00
		c0.00-41.826-26.792-77.299-64.11-90.457c-0.219,10.688-3.469,21.284-9.781,30.457c 24.439,9.017, 41.895,32.441, 41.895,60.00l0.00,0.00l0.00,0.00
		c0.00,35.348-28.651,64.00-64.00,64.00c-12.806,0.00-24.666-3.852-34.676-10.33c-9.853,42.537-47.787,74.33-93.324,74.33
		c-53.021,0.00-96.004-42.982-96.004-96.005c0.00-11.235, 2.031-21.971, 5.586-31.995l 0.117,0.00 c 7.799-21.933, 23.16-40.264, 43.154-51.577
		l-0.453-0.453c-7.853-7.845-12.768-17.471-14.979-27.566c-30.012,16.862-52.412,45.49-61.227,79.597l0.00,0.00
		C 1.555,202.102,0.00,212.79,0.00,223.854c0.00,70.697, 57.304,128.001, 128.00,128.001c 16.018,0.00, 31.316-3.00, 45.436-8.376
		c 13.088,37.458, 48.639,64.383, 90.566,64.383c 6.039,0.00, 11.931-0.625, 17.658-1.696c-1.055-4.602-1.664-9.384-1.664-14.307
		c0.00-35.348, 28.659-64.00, 64.008-64.00c 4.922,0.00, 9.696,0.609, 14.299,1.664c 1.07-5.735, 1.695-11.626, 1.695-17.666
		C 359.998,286.784, 350.309,264.023, 334.564,246.927z M 249.695,374.201c-23.207-5.313-41.404-23.284-47.396-46.209l0.00,0.00
		c 15.338-10.978, 28.175-25.222, 37.434-41.771c 5.313,0.907, 10.697,1.641, 16.268,1.641c 20.948,0.00, 40.264-6.79, 56.047-18.174
		c 6.867,7.837, 11.884,17.346, 14.291,27.863C 287.496,304.786, 256.922,335.353, 249.695,374.201z M 119.999,134.171l 16.972-16.971
		c 9.375-9.368, 9.375-24.565,0.00-33.941c-9.369-9.368-24.566-9.368-33.942,0.00c-9.368,9.376-9.368,24.573,0.00,33.941L 119.999,134.171z
		 M 175.998,70.179l 16.971-16.971c 9.377-9.376, 9.377-24.573,0.00-33.941c-9.368-9.377-24.564-9.377-33.941,0.00
		c-9.368,9.368-9.368,24.565,0.00,33.941L 175.998,70.179z M 231.998,134.171l 16.971-16.971c 9.376-9.368, 9.376-24.565,0.00-33.941
		c-9.369-9.368-24.566-9.368-33.942,0.00c-9.368,9.376-9.368,24.573,0.00,33.941L 231.998,134.171z" horiz-adv-x="384"  />
<glyph unicode="&#xe009;" d="M 287.875,101.586l0.00,35.051 
		c 19.111,11.071, 32.003,31.691, 32.003,55.366c0.00,35.349-28.659,64.00-64.008,64.00c-12.798,0.00-24.659-3.844-34.668-10.329
		c-9.853,42.544-47.795,74.33-93.332,74.33c-53.015,0.00-95.997-42.982-95.997-95.997c0.00-28.401, 12.408-53.835, 32.004-71.407l0.00-39.333 
		C 25.654,135.41-0.13,176.649-0.13,224.007c0.00,70.688, 57.312,127.993, 128.00,127.993c 48.037,0.00, 89.839-26.488, 111.732-65.634
		c 5.313,0.906, 10.704,1.641, 16.268,1.641c 53.022,0.00, 96.005-42.981, 96.005-96.004C 351.875,150.225, 325.137,114.782, 287.875,101.586z
		 M 111.876,192.003c 8.837,0.00, 15.994-7.165, 15.994-15.994l0.00-128.00 c0.00-8.845-7.157-16.003-15.994-16.003s-16.002,7.158-16.002,16.003l0.00,128.00 
		C 95.874,184.838, 103.039,192.003, 111.876,192.003z M 175.876,160.007c 8.837,0.00, 16.002-7.165, 16.002-16.002l0.00-128.001 
		c0.00-8.837-7.165-16.002-16.002-16.002s-16.002,7.165-16.002,16.002L 159.874,144.005 C 159.874,152.842, 167.039,160.007, 175.876,160.007z
		 M 239.876,192.003c 8.837,0.00, 15.994-7.165, 15.994-15.994l0.00-128.00 c0.00-8.845-7.157-16.003-15.994-16.003s-16.002,7.158-16.002,16.003l0.00,128.00 
		C 223.874,184.838, 231.039,192.003, 239.876,192.003z" horiz-adv-x="352"  />
<glyph unicode="&#xe00a;" d="M 416.005,272.003l-32.004,0.00 c-8.829,0.00-16.002,7.157-16.002,16.002
		c0.00,8.829, 7.173,16.002, 16.002,16.002l 32.004,0.00 c 8.838,0.00, 16.002-7.173, 16.002-16.002C 432.007,279.16, 424.843,272.003, 416.005,272.003z
		 M 353.138,378.517c-6.25-6.251-16.377-6.251-22.628,0.00c-6.25,6.243-6.25,16.377,0.00,22.628l 22.628,22.628
		c 6.251,6.243, 16.377,6.243, 22.628,0.00c 6.251-6.251, 6.251-16.385,0.00-22.628L 353.138,378.517z M 329.557,253.642L 329.557,253.642
		c 14.002-16.674, 22.448-38.161, 22.448-61.641c0.00-41.778-26.745-77.221-64.00-90.417l0.00,35.051 c 19.111,11.071, 32.004,31.691, 32.004,55.366
		c0.00,35.349-28.66,64.00-64.008,64.00c-12.799,0.00-24.667-3.844-34.669-10.329c-9.853,42.544-47.795,74.33-93.331,74.33
		c-53.015,0.00-95.997-42.982-95.997-95.997c0.00-28.401, 12.408-53.835, 32.004-71.407l0.00-39.333 C 25.784,135.408,0.00,176.647,0.00,224.005
		c0.00,70.688, 57.312,127.993, 128.001,127.993c 12.579,0.00, 24.722-1.853, 36.199-5.235c 17.557,22.62, 44.943,37.239, 75.799,37.239
		c 53.022,0.00, 96.004-42.975, 96.004-95.997C 336.003,275.879, 333.667,264.322, 329.557,253.642z M 239.999,351.998
		c-17.689,0.00-33.715-7.188-45.303-18.80c 18.729-11.478, 34.293-27.62, 45.037-46.834c 5.312,0.906, 10.704,1.641, 16.268,1.641
		c 17.01,0.00, 32.957-4.469, 46.803-12.22l0.00,0.00c 0.766,3.953, 1.203,8.032, 1.203,12.22C 304.007,323.354, 275.347,351.998, 239.999,351.998z
		 M 239.999,416.006c-8.829,0.00-15.994,7.157-15.994,16.002L 224.005,464.004 c0.00,8.837, 7.165,15.994, 15.994,15.994
		c 8.845,0.00, 16.002-7.157, 16.002-15.994l0.00-31.996 C 256.001,423.163, 248.844,416.006, 239.999,416.006z M 126.867,378.517l-22.628,22.628
		c-6.242,6.243-6.242,16.377,0.00,22.628c 6.243,6.243, 16.385,6.243, 22.628,0.00l 22.628-22.628c 6.243-6.251, 6.243-16.385,0.00-22.628
		C 143.244,372.266, 133.11,372.266, 126.867,378.517z M 111.998,192.001c 8.846,0.00, 16.003-7.165, 16.003-15.994l0.00-128.00 
		c0.00-8.845-7.157-16.003-16.003-16.003c-8.829,0.00-15.994,7.158-15.994,16.003l0.00,128.00 C 96.004,184.836, 103.169,192.001, 111.998,192.001z
		 M 176.007,160.005c 8.829,0.00, 16.002-7.165, 16.002-16.002l0.00-128.001 c0.00-8.837-7.173-16.002-16.002-16.002
		c-8.838,0.00-16.002,7.165-16.002,16.002L 160.005,144.003 C 160.005,152.84, 167.169,160.005, 176.007,160.005z M 239.999,192.001
		c 8.845,0.00, 16.002-7.165, 16.002-15.994l0.00-128.00 c0.00-8.845-7.157-16.003-16.002-16.003c-8.829,0.00-15.994,7.158-15.994,16.003l0.00,128.00 
		C 224.005,184.836, 231.17,192.001, 239.999,192.001z" horiz-adv-x="448"  />
<glyph unicode="&#xe00b;" d="M 111.998,192.29c-8.829,0.00-15.994-7.165-15.994-15.994l0.00-128.00 
				c0.00-8.845, 7.165-16.003, 15.994-16.003c 8.845,0.00, 16.002,7.158, 16.002,16.003l0.00,128.00 C 128.00,185.125, 120.843,192.29, 111.998,192.29z
				 M 176.006,160.294c-8.845,0.00-16.002-7.165-16.002-16.002l0.00-128.001 c0.00-8.837, 7.157-16.002, 16.002-16.002
				c 8.829,0.00, 16.002,7.165, 16.002,16.002L 192.008,144.292 C 192.008,153.129, 184.835,160.294, 176.006,160.294z M 239.998,192.29
				c-8.829,0.00-15.994-7.165-15.994-15.994l0.00-128.00 c0.00-8.845, 7.165-16.003, 15.994-16.003c 8.846,0.00, 16.002,7.158, 16.002,16.003l0.00,128.00 
				C 256.00,185.125, 248.844,192.29, 239.998,192.29z M 359.998,312.297c0.00,6.032-0.625,11.924-1.688,17.659
				c-4.61-1.056-9.385-1.665-14.307-1.665c-35.349,0.00-64.00,28.652-64.00,64.001c0.00,4.922, 0.609,9.704, 1.656,14.306
				c-5.728,1.071-11.611,1.696-17.659,1.696c-41.927,0.00-77.478-26.926-90.558-64.384c-14.127,5.376-29.426,8.377-45.443,8.377
				c-70.688,0.00-128.00-57.305-128.00-127.993c0.00-47.357, 25.784-88.597, 64.008-110.74l0.00,39.333 c-19.604,17.572-32.004,43.006-32.004,71.407
				c0.00,53.015, 42.974,95.997, 95.996,95.997c 45.537,0.00, 83.479-31.786, 93.332-74.33c 10.001,6.485, 21.87,10.329, 34.668,10.329
				c 35.349,0.00, 64.001-28.651, 64.001-64.00c0.00-23.675-12.885-44.295-31.996-55.366l0.00-35.051 c 37.254,13.196, 64.00,48.639, 64.00,90.417
				c0.00,20.511-6.485,39.474-17.44,55.069C 350.31,264.463, 359.998,287.216, 359.998,312.297z M 312.055,270.12
				c-15.783,11.392-35.106,18.174-56.055,18.174c-5.57,0.00-10.954-0.734-16.268-1.641c-9.251,16.549-22.096,30.793-37.434,41.771
				c 6.00,22.925, 24.198,40.896, 47.396,46.209c 7.235-38.849, 37.809-69.414, 76.642-76.65C 323.931,287.466, 318.914,277.965, 312.055,270.12
				z" horiz-adv-x="384"  />
<glyph unicode="&#xe00c;" d="M 256.003,96.003c-2.125,0.00-4.916,0.00-8.002,0.00
		c0.00,10.978-2.555,21.94-7.547,32.00c 6.219,0.00, 11.609,0.00, 15.549,0.00c 35.348,0.00, 64.00,28.651, 64.00,63.996c0.00,35.349-28.652,64.00-64.00,64.00
		c-12.799,0.00-24.668-3.848-34.676-10.325C 211.474,288.214, 173.539,320.00, 128.002,320.00c-53.022,0.00-95.997-42.979-95.997-95.997
		c0.00-47.627, 34.716-87.046, 80.198-94.594c-5.095-9.731-7.751-20.386-8.095-31.098C 44.851,109.512, 0.001,161.483, 0.001,224.003
		C 0.001,294.691, 57.306,352.00, 128.002,352.00c 48.037,0.00, 89.838-26.496, 111.733-65.638c 5.312,0.91, 10.695,1.637, 16.268,1.637
		c 53.021,0.00, 95.996-42.978, 95.996-96.00C 351.999,138.98, 309.024,96.003, 256.003,96.003z M 176.008,152.568l 28.284-28.285
		c 15.611-15.619, 15.611-40.946,0.00-56.565c-15.627-15.623-40.958-15.623-56.569,0.00c-15.627,15.619-15.627,40.946,0.00,56.565
		L 176.008,152.568z" horiz-adv-x="352"  />
<glyph unicode="&#xe00d;" d="M 415.997,271.792l-31.996,0.00 c-8.837,0.00-16.002,7.157-16.002,16.002
		c0.00,8.829, 7.165,16.002, 16.002,16.002l 31.996,0.00 c 8.837,0.00, 16.002-7.173, 16.002-16.002C 431.999,278.949, 424.834,271.792, 415.997,271.792z
		 M 353.138,378.306c-6.251-6.251-16.377-6.251-22.628,0.00c-6.25,6.243-6.25,16.377,0.00,22.628l 22.628,22.628
		c 6.251,6.243, 16.377,6.243, 22.628,0.00c 6.25-6.251, 6.25-16.385,0.00-22.628L 353.138,378.306z M 329.557,253.431L 329.557,253.431
		c 13.986-16.674, 22.44-38.161, 22.44-61.641l0.00,0.00c0.00-53.015-42.974-95.996-95.997-95.996c-2.125,0.00-4.914,0.00-8.00,0.00
		c0.00,10.978-2.556,21.94-7.549,31.996c 6.221,0.00, 11.611,0.00, 15.549,0.00c 35.349,0.00, 64.001,28.659, 64.001,64.00c0.00,35.349-28.652,64.00-64.001,64.00
		c-12.806,0.00-24.674-3.844-34.676-10.329c-9.853,42.544-47.787,74.33-93.324,74.33c-53.021,0.00-95.996-42.982-95.996-95.997
		c0.00-11.243, 2.031-21.979, 5.578-32.004l-0.039,0.00 c 11.494-32.418, 39.904-56.827, 74.658-62.594c-5.094-9.728-7.751-20.378-8.095-31.098
		c-48.771,9.22-87.722,46.084-99.997,93.691l 0.086,0.00 C 1.555,202.033,0.00,212.723,0.00,223.794c0.00,70.688, 57.304,127.993, 128.00,127.993
		c 12.58,0.00, 24.715-1.853, 36.192-5.235c 17.564,22.62, 44.942,37.239, 75.806,37.239c 53.023,0.00, 95.997-42.975, 95.997-95.997
		C 335.995,275.668, 333.658,264.111, 329.557,253.431z M 239.998,351.787c-17.705,0.00-33.723-7.188-45.303-18.80
		c 18.722-11.478, 34.286-27.62, 45.037-46.834c 5.313,0.906, 10.689,1.641, 16.268,1.641c 17.002,0.00, 32.95-4.469, 46.803-12.22l0.00,0.00
		c 0.766,3.953, 1.195,8.032, 1.195,12.22C 303.998,323.143, 275.347,351.787, 239.998,351.787z M 239.998,415.795
		c-8.836,0.00-16.002,7.157-16.002,16.002L 223.996,463.793 c0.00,8.837, 7.166,15.994, 16.002,15.994C 248.836,479.787, 256.00,472.63, 256.00,463.793l0.00-31.996 
		C 256.00,422.952, 248.836,415.795, 239.998,415.795z M 126.859,378.306l-22.628,22.628c-6.251,6.243-6.251,16.377,0.00,22.628
		c 6.251,6.243, 16.377,6.243, 22.628,0.00l 22.628-22.628c 6.251-6.251, 6.251-16.385,0.00-22.628
		C 143.236,372.055, 133.11,372.055, 126.859,378.306z M 175.998,152.355l 28.285-28.285c 15.619-15.611, 15.619-40.942,0.00-56.562
		s-40.951-15.619-56.57,0.00s-15.619,40.95,0.00,56.562L 175.998,152.355z" horiz-adv-x="448"  />
<glyph unicode="&#xe00e;" d="M 431.998,288.294L 431.998,288.294L 431.998,288.294
		L 431.998,288.294z M 351.996,192.29c0.00-53.015-42.981-95.996-95.996-95.996c-2.125,0.00-4.914,0.00-8.001,0.00
		c0.00,10.978-2.555,21.94-7.548,31.996c 6.22,0.00, 11.604,0.00, 15.549,0.00c 35.34,0.00, 64.00,28.659, 64.00,64.00c0.00,35.349-28.66,64.00-64.00,64.00
		c-12.807,0.00-24.675-3.844-34.676-10.329c-9.854,42.544-47.787,74.33-93.324,74.33c-53.022,0.00-96.004-42.982-96.004-95.997
		c0.00-11.243, 2.031-21.979, 5.578-32.004l-0.031,0.00 c 11.494-32.418, 39.904-56.827, 74.658-62.594c-5.103-9.728-7.752-20.378-8.096-31.098
		c-48.779,9.22-87.721,46.084-99.996,93.691l 0.086,0.00 C 1.555,202.533,0.00,213.223,0.00,224.294c0.00,70.688, 57.303,127.993, 128.00,127.993
		c 16.018,0.00, 31.316-3.001, 45.436-8.377c 13.087,37.458, 48.639,64.384, 90.565,64.384c 6.04,0.00, 11.923-0.625, 17.659-1.696
		c-1.055-4.602-1.665-9.384-1.665-14.306c0.00-35.349, 28.66-64.001, 64.001-64.001c 4.93,0.00, 9.703,0.609, 14.306,1.665
		c 1.071-5.735, 1.696-11.627, 1.696-17.659c0.00-25.081-9.697-47.834-25.441-64.938C 345.512,231.764, 351.996,212.801, 351.996,192.29z
		 M 249.688,374.633c-23.199-5.312-41.396-23.284-47.397-46.209l0.00,0.00c 15.338-10.978, 28.184-25.222, 37.442-41.771
		c 5.312,0.906, 10.689,1.641, 16.268,1.641c 20.94,0.00, 40.264-6.782, 56.047-18.174c 6.867,7.845, 11.884,17.346, 14.29,27.862
		C 287.496,305.219, 256.922,335.784, 249.688,374.633z M 239.998,480.287L 239.998,480.287L 239.998,480.287L 239.998,480.287z M 175.998,152.855
		l 28.285-28.285c 15.619-15.611, 15.619-40.942,0.00-56.562s-40.951-15.619-56.57,0.00s-15.619,40.95,0.00,56.562L 175.998,152.855z" horiz-adv-x="384"  />
<glyph unicode="&#xe00f;" d="M 287.998,101.586l0.00,35.051 
		c 19.111,11.071, 31.996,31.691, 31.996,55.366c0.00,35.349-28.652,64.00-63.992,64.00c-12.807,0.00-24.676-3.844-34.676-10.329
		c-9.854,42.544-47.796,74.33-93.332,74.33c-53.016,0.00-95.997-42.982-95.997-95.997c0.00-28.401, 12.399-53.835, 31.996-71.407l0.00-39.333 
		C 25.777,135.41, 0.001,176.649, 0.001,224.007C 0.001,294.695, 57.305,352.00, 127.994,352.00c 48.037,0.00, 89.839-26.488, 111.74-65.634
		c 5.305,0.906, 10.688,1.641, 16.268,1.641c 53.014,0.00, 95.996-42.981, 95.996-96.004C 351.998,150.225, 325.26,114.782, 287.998,101.586z
		 M 111.999,96.007c-8.837,0.00-8.001,7.165-8.001,15.994l0.00,64.008 c0.00,8.829-0.836,15.994, 8.001,15.994S 120.00,184.838, 120.00,176.009l0.00-64.008 
		C 120.00,103.172, 120.836,96.007, 111.999,96.007z M 111.999,64.011c 8.837,0.00, 15.995-7.173, 15.995-16.002
		c0.00-8.845-7.158-16.003-15.995-16.003s-16.002,7.158-16.002,16.003C 95.997,56.838, 103.162,64.011, 111.999,64.011z M 176.00,64.011
		c-8.838,0.00-8.002,7.157-8.002,15.994l0.00,64.00 c0.00,8.837-0.836,16.002, 8.002,16.002c 8.836,0.00, 8.00-7.165, 8.00-16.002l0.00-64.00 
		C 184.00,71.168, 184.836,64.011, 176.00,64.011z M 176.00,32.006c 8.836,0.00, 15.994-7.164, 15.994-16.002c0.00-8.837-7.158-16.002-15.994-16.002
		c-8.838,0.00-16.002,7.165-16.002,16.002C 159.998,24.842, 167.162,32.006, 176.00,32.006z M 240.00,96.007
		c-8.838,0.00-8.002,7.165-8.002,15.994l0.00,64.008 c0.00,8.829-0.836,15.994, 8.002,15.994c 8.837,0.00, 8.001-7.165, 8.001-15.994l0.00-64.008 
		C 248.001,103.172, 248.837,96.007, 240.00,96.007z M 240.00,64.011c 8.837,0.00, 16.002-7.173, 16.002-16.002
		c0.00-8.845-7.165-16.003-16.002-16.003c-8.838,0.00-16.002,7.158-16.002,16.003C 223.998,56.838, 231.162,64.011, 240.00,64.011z" horiz-adv-x="352"  />
<glyph unicode="&#xe010;" d="M 416.006,272.003l-32.004,0.00 c-8.838,0.00-16.002,7.157-16.002,16.002
		c0.00,8.829, 7.164,16.002, 16.002,16.002l 32.004,0.00 c 8.837,0.00, 15.994-7.173, 15.994-16.002C 432.00,279.16, 424.843,272.003, 416.006,272.003z
		 M 353.139,378.517c-6.243-6.251-16.377-6.251-22.628,0.00c-6.243,6.243-6.243,16.377,0.00,22.628l 22.628,22.628
		c 6.25,6.243, 16.385,6.243, 22.627,0.00c 6.252-6.251, 6.252-16.385,0.00-22.628L 353.139,378.517z M 329.558,253.642L 329.558,253.642
		c 13.993-16.674, 22.448-38.161, 22.448-61.641c0.00-41.778-26.738-77.221-64.00-90.417l0.00,35.051 c 19.111,11.071, 31.996,31.691, 31.996,55.366
		c0.00,35.349-28.652,64.00-64.00,64.00c-12.799,0.00-24.668-3.844-34.669-10.329c-9.86,42.544-47.795,74.33-93.332,74.33
		c-53.015,0.00-95.997-42.982-95.997-95.997c0.00-28.401, 12.40-53.835, 31.997-71.407l0.00-39.333 C 25.785,135.408,0.00,176.647,0.00,224.005
		c0.00,70.688, 57.312,127.993, 128.001,127.993c 12.579,0.00, 24.714-1.853, 36.20-5.235c 17.557,22.62, 44.943,37.239, 75.807,37.239
		c 53.014,0.00, 95.996-42.975, 95.996-95.997C 336.004,275.879, 333.66,264.322, 329.558,253.642z M 240.008,351.998
		c-17.706,0.00-33.724-7.188-45.311-18.80c 18.729-11.478, 34.293-27.62, 45.037-46.834c 5.312,0.906, 10.695,1.641, 16.268,1.641
		c 17.01,0.00, 32.949-4.469, 46.803-12.22l0.00,0.00c 0.766,3.953, 1.195,8.032, 1.195,12.22C 304.00,323.354, 275.348,351.998, 240.008,351.998z
		 M 240.008,416.006c-8.838,0.00-16.002,7.157-16.002,16.002L 224.006,464.004 c0.00,8.837, 7.164,15.994, 16.002,15.994
		c 8.828,0.00, 15.994-7.157, 15.994-15.994l0.00-31.996 C 256.002,423.163, 248.836,416.006, 240.008,416.006z M 126.868,378.517L 104.24,401.145
		c-6.251,6.243-6.251,16.377,0.00,22.628c 6.25,6.243, 16.377,6.243, 22.628,0.00l 22.628-22.628c 6.242-6.251, 6.242-16.385,0.00-22.628
		C 143.245,372.266, 133.119,372.266, 126.868,378.517z M 112.007,96.005c-8.837,0.00-8.001,7.165-8.001,15.994l0.00,64.008 
		c0.00,8.829-0.836,15.994, 8.001,15.994c 8.829,0.00, 7.993-7.165, 7.993-15.994l0.00-64.008 C 120.00,103.17, 120.836,96.005, 112.007,96.005z
		 M 112.007,64.009c 8.829,0.00, 15.994-7.173, 15.994-16.002c0.00-8.845-7.165-16.003-15.994-16.003c-8.837,0.00-16.002,7.158-16.002,16.003
		C 96.005,56.836, 103.17,64.009, 112.007,64.009z M 176.007,64.009c-8.837,0.00-8.001,7.157-8.001,15.994l0.00,64.00 
		c0.00,8.837-0.836,16.002, 8.001,16.002c 8.829,0.00, 7.993-7.165, 7.993-16.002l0.00-64.00 C 184.00,71.166, 184.836,64.009, 176.007,64.009z
		 M 176.007,32.004c 8.829,0.00, 15.994-7.164, 15.994-16.002c0.00-8.837-7.165-16.002-15.994-16.002c-8.837,0.00-16.002,7.165-16.002,16.002
		C 160.005,24.84, 167.17,32.004, 176.007,32.004z M 240.008,96.005c-8.838,0.00-8.002,7.165-8.002,15.994l0.00,64.008 
		c0.00,8.829-0.836,15.994, 8.002,15.994c 8.828,0.00, 7.992-7.165, 7.992-15.994l0.00-64.008 C 248.00,103.17, 248.836,96.005, 240.008,96.005z
		 M 240.008,64.009c 8.828,0.00, 15.994-7.173, 15.994-16.002c0.00-8.845-7.166-16.003-15.994-16.003c-8.838,0.00-16.002,7.158-16.002,16.003
		C 224.006,56.836, 231.17,64.009, 240.008,64.009z" horiz-adv-x="448"  />
<glyph unicode="&#xe011;" d="M 334.565,247.359L 334.565,247.359
		c 10.954-15.596, 17.439-34.559, 17.439-55.069c0.00-41.778-26.745-77.221-64.008-90.417l0.00,35.051 
		c 19.112,11.071, 32.004,31.691, 32.004,55.366c0.00,35.349-28.651,64.00-64.00,64.00c-12.806,0.00-24.667-3.844-34.669-10.329
		c-9.86,42.544-47.795,74.33-93.332,74.33c-53.014,0.00-95.996-42.982-95.996-95.997c0.00-28.401, 12.40-53.835, 31.996-71.407l0.00-39.333 
		c-38.223,22.144-64.00,63.383-64.00,110.74c0.00,70.688, 57.312,127.993, 128.00,127.993c 16.018,0.00, 31.316-3.001, 45.443-8.377l0.00,0.00
		c 13.08,37.458, 48.631,64.384, 90.559,64.384c 6.039,0.00, 11.932-0.625, 17.666-1.696c-1.055-4.602-1.664-9.384-1.664-14.306
		c0.00-35.349, 28.652-64.001, 64.00-64.001c 4.923,0.00, 9.697,0.609, 14.307,1.665c 1.062-5.735, 1.688-11.627, 1.688-17.659
		C 359.998,287.216, 350.31,264.463, 334.565,247.359z M 249.695,374.633c-23.206-5.312-41.396-23.284-47.396-46.209l0.00,0.00
		c 15.338-10.978, 28.176-25.222, 37.435-41.771c 5.313,0.906, 10.696,1.641, 16.268,1.641c 20.948,0.00, 40.263-6.782, 56.046-18.174l0.00,0.00
		c 6.868,7.845, 11.885,17.346, 14.291,27.862C 287.497,305.219, 256.931,335.784, 249.695,374.633z M 111.998,96.294
		c-8.836,0.00-7.992,7.165-7.992,15.994l0.00,64.008 c0.00,8.829-0.844,15.994, 7.992,15.994c 8.838,0.00, 8.002-7.165, 8.002-15.994l0.00-64.008 
		C 120.00,103.459, 120.836,96.294, 111.998,96.294z M 111.998,64.298c 8.838,0.00, 16.002-7.173, 16.002-16.002
		c0.00-8.845-7.164-16.003-16.002-16.003c-8.836,0.00-15.994,7.158-15.994,16.003C 96.004,57.125, 103.162,64.298, 111.998,64.298z
		 M 175.998,64.298c-8.836,0.00-8.00,7.157-8.00,15.994l0.00,64.00 c0.00,8.837-0.836,16.002, 8.00,16.002c 8.838,0.00, 8.002-7.165, 8.002-16.002l0.00-64.00 
		C 184.00,71.455, 184.836,64.298, 175.998,64.298z M 175.998,32.293c 8.838,0.00, 16.002-7.164, 16.002-16.002
		c0.00-8.837-7.164-16.002-16.002-16.002c-8.836,0.00-15.994,7.165-15.994,16.002C 160.004,25.129, 167.162,32.293, 175.998,32.293z
		 M 239.999,96.294c-8.837,0.00-8.001,7.165-8.001,15.994l0.00,64.008 c0.00,8.829-0.836,15.994, 8.001,15.994S 248.00,185.125, 248.00,176.296l0.00-64.008 
		C 248.00,103.459, 248.836,96.294, 239.999,96.294z M 239.999,64.298c 8.837,0.00, 16.002-7.173, 16.002-16.002
		c0.00-8.845-7.165-16.003-16.002-16.003s-15.994,7.158-15.994,16.003C 224.005,57.125, 231.162,64.298, 239.999,64.298z" horiz-adv-x="384"  />
<glyph unicode="&#xe012;" d="M 359.998,48.009c-8.838,0.00-15.994,7.157-15.994,16.002
		c0.00,8.829, 7.156,15.994, 15.994,15.994c 8.837,0.00, 16.002-7.165, 16.002-15.994C 376.00,55.166, 368.835,48.009, 359.998,48.009z
		 M 287.996,101.586l0.00,35.051 C 307.108,147.708, 320.00,168.328, 320.00,192.003c0.00,35.349-28.651,64.00-64.00,64.00
		c-12.806,0.00-24.666-3.844-34.676-10.329c-9.853,42.544-47.787,74.33-93.324,74.33c-53.021,0.00-96.004-42.982-96.004-95.997
		c0.00-28.401, 12.408-53.835, 32.004-71.407l0.00-39.333 C 25.776,135.41,0.00,176.649,0.00,224.007C0.00,294.695, 57.304,352.00, 128.00,352.00
		c 48.037,0.00, 89.84-26.488, 111.732-65.634c 5.313,0.906, 10.697,1.641, 16.268,1.641c 53.016,0.00, 95.997-42.981, 95.997-96.004
		C 351.997,150.225, 325.26,114.782, 287.996,101.586z M 24.003,40.008c 8.837,0.00, 15.994-7.165, 15.994-16.002
		c0.00-8.838-7.157-16.002-15.994-16.002S 8.00,15.168, 8.00,24.006C 8.00,32.843, 15.166,40.008, 24.003,40.008z M 103.997,176.009
		c0.00,8.829-0.836,15.994, 8.001,15.994s 8.001-7.165, 8.001-15.994L 119.999-16.00 l-16.002,0.00 l0.00,0.00l0.00,0.00c0.00,17.675-14.322,32.004-31.996,32.004l0.00,16.002 
		c 12.345,0.00, 23.495-4.797, 31.996-12.454L 103.997,176.009 z M 175.998,64.011c-8.837,0.00-8.001,7.157-8.001,15.994l0.00,64.00 
		c0.00,8.837-0.836,16.002, 8.001,16.002c 8.838,0.00, 8.002-7.165, 8.002-16.002l0.00-64.00 C 184.00,71.168, 184.836,64.011, 175.998,64.011z
		 M 175.998,32.006c 8.838,0.00, 16.002-7.164, 16.002-16.002c0.00-8.837-7.164-16.002-16.002-16.002c-8.837,0.00-16.002,7.165-16.002,16.002
		C 159.996,24.842, 167.161,32.006, 175.998,32.006z M 239.998,192.003c 8.838,0.00, 8.002-7.165, 8.002-15.994l0.00-144.151 
		c 14.588,19.479, 37.785,32.153, 64.00,32.153l0.00-16.002 c-35.349,0.00-64.00-28.66-64.00-64.009l-16.002,0.00 c0.00,2.181, 0.156,4.321, 0.328,6.454
		c-0.43,2.673-0.328,5.954-0.328,9.548L 231.998,176.009 C 231.998,184.838, 231.162,192.003, 239.998,192.003z" horiz-adv-x="384"  />
<glyph unicode="&#xe013;" d="M 416.005,272.232l-32.004,0.00 c-8.828,0.00-15.994,7.165-15.994,16.002
		s 7.166,16.002, 15.994,16.002l 32.004,0.00 c 8.838,0.00, 16.002-7.165, 16.002-16.002S 424.843,272.232, 416.005,272.232z M 353.138,378.745
		c-6.242-6.251-16.377-6.251-22.627,0.00c-6.244,6.251-6.244,16.378,0.00,22.628l 22.627,22.628c 6.252,6.251, 16.385,6.251, 22.629,0.00
		c 6.25-6.251, 6.25-16.377,0.00-22.628L 353.138,378.745z M 329.558,253.87L 329.558,253.87c 14.002-16.674, 22.447-38.161, 22.447-61.632
		c0.00-41.787-26.738-77.229-64.00-90.426l0.00,35.051 c 19.111,11.072, 32.004,31.699, 32.004,55.375c0.00,35.34-28.66,63.992-64.008,63.992
		c-12.799,0.00-24.66-3.845-34.668-10.33c-9.854,42.545-47.795,74.338-93.333,74.338c-53.015,0.00-95.997-42.99-95.997-96.004
		c0.00-11.244, 2.016-21.995, 5.579-31.996l0.00,0.00c 5.438-15.283, 14.58-28.801, 26.425-39.412l0.00-39.333 
		c-29.285,16.972-51.147,45.193-59.82,78.745C 1.532,202.474,0.00,213.162,0.00,224.234c0.00,70.688, 57.312,128.00, 128.00,128.00
		c 12.587,0.00, 24.722-1.859, 36.20-5.243c 17.564,22.628, 44.951,37.239, 75.806,37.239c 53.014,0.00, 96.004-42.975, 96.004-95.996
		C 336.011,276.107, 333.667,264.56, 329.558,253.87z M 240.007,352.234c-17.697,0.00-33.723-7.188-45.311-18.807
		c 18.729-11.479, 34.293-27.621, 45.037-46.834c 5.312,0.906, 10.703,1.641, 16.268,1.641c 17.01,0.00, 32.957-4.47, 46.803-12.221l0.00,0.00
		c 0.773,3.954, 1.203,8.032, 1.203,12.221C 304.007,323.582, 275.347,352.234, 240.007,352.234z M 240.007,416.234
		c-8.838,0.00-16.002,7.157-16.002,16.002L 224.005,464.232 c0.00,8.837, 7.164,16.002, 16.002,16.002c 8.836,0.00, 15.994-7.165, 15.994-16.002l0.00-31.996 
		C 256.001,423.392, 248.843,416.234, 240.007,416.234z M 126.868,378.745L 104.24,401.373c-6.243,6.251-6.243,16.377,0.00,22.628
		c 6.25,6.251, 16.385,6.251, 22.628,0.00l 22.628-22.628c 6.25-6.25, 6.25-16.377,0.00-22.628C 143.252,372.494, 133.118,372.494, 126.868,378.745
		z M 24.003,40.234c 8.845,0.00, 16.002-7.165, 16.002-16.002s-7.157-16.002-16.002-16.002c-8.829,0.00-16.002,7.165-16.002,16.002
		S 15.174,40.234, 24.003,40.234z M 104.005,176.235c0.00,8.829-0.836,16.003, 8.001,16.003l0.00,0.00c 8.837,0.00, 8.001-7.174, 8.001-16.003
		l0.00-192.008 l-16.002,0.00 l0.00,0.00l0.00,0.00c0.00,17.674-14.322,32.004-31.996,32.004l0.00,16.002 c 12.345,0.00, 23.487-4.798, 31.996-12.455L 104.005,176.235 z
		 M 176.006,64.237c-8.837,0.00-8.001,7.157-8.001,15.994l0.00,64.00 c0.00,8.837-0.836,16.002, 8.001,16.002c 8.836,0.00, 8.00-7.165, 8.00-16.002l0.00-64.00 
		C 184.007,71.395, 184.843,64.237, 176.006,64.237z M 176.006,32.233c 8.836,0.00, 16.002-7.165, 16.002-16.002
		c0.00-8.829-7.166-16.002-16.002-16.002c-8.837,0.00-16.002,7.173-16.002,16.002C 160.004,25.068, 167.169,32.233, 176.006,32.233z
		 M 240.007,192.238L 240.007,192.238c 8.836,0.00, 8.00-7.174, 8.00-16.003l0.00-144.143 c 14.588,19.472, 37.787,32.145, 64.002,32.145l0.00-16.002 
		c-35.35,0.00-64.002-28.66-64.002-64.008l-16.002,0.00 c0.00,2.188, 0.156,4.32, 0.32,6.454c-0.422,2.672-0.32,5.953-0.32,9.548L 232.005,176.235 
		C 232.005,185.064, 231.169,192.238, 240.007,192.238z M 360.007,80.231c 8.836,0.00, 15.994-7.165, 15.994-15.994
		c0.00-8.845-7.158-16.002-15.994-16.002c-8.838,0.00-16.002,7.157-16.002,16.002C 344.005,73.066, 351.169,80.231, 360.007,80.231z" horiz-adv-x="448"  />
<glyph unicode="&#xe014;" d="M 359.998,48.235c-8.829,0.00-15.994,7.157-15.994,16.002
		c0.00,8.829, 7.165,15.994, 15.994,15.994c 8.845,0.00, 16.002-7.165, 16.002-15.994C 376.00,55.393, 368.843,48.235, 359.998,48.235z
		 M 334.565,247.299c 10.954-15.596, 17.439-34.559, 17.439-55.061c0.00-41.787-26.745-77.229-64.00-90.426l0.00,35.051 
		c 19.111,11.072, 32.004,31.699, 32.004,55.375c0.00,35.34-28.66,63.992-64.008,63.992c-12.799,0.00-24.667-3.845-34.669-10.33
		c-9.853,42.545-47.795,74.338-93.331,74.338c-53.015,0.00-95.997-42.99-95.997-96.004c0.00-11.244, 2.017-21.995, 5.579-31.996l0.00,0.00
		c 5.438-15.283, 14.58-28.801, 26.425-39.412l0.00-39.333 c-29.284,16.972-51.146,45.193-59.819,78.745C 1.531,202.474,0.00,213.162,0.00,224.234
		c0.00,70.688, 57.312,128.00, 128.001,128.00c 16.018,0.00, 31.316-3.008, 45.442-8.384c 13.08,37.458, 48.632,64.383, 90.559,64.383
		c 6.048,0.00, 11.931-0.625, 17.666-1.688c-1.055-4.61-1.664-9.392-1.664-14.314c0.00-35.349, 28.66-63.992, 64.00-63.992
		c 4.931,0.00, 9.696,0.602, 14.307,1.656c 1.062-5.735, 1.688-11.626, 1.688-17.658C 359.998,287.156, 350.31,264.403, 334.565,247.299z
		 M 249.703,374.573c-23.206-5.313-41.403-23.284-47.404-46.209l0.00,0.00c 15.338-10.978, 28.184-25.222, 37.435-41.771
		c 5.312,0.906, 10.704,1.641, 16.268,1.641c 20.947,0.00, 40.271-6.782, 56.054-18.175c 6.868,7.845, 11.885,17.347, 14.283,27.863
		C 287.505,305.158, 256.931,335.732, 249.703,374.573z M 239.999,480.234L 239.999,480.234L 239.999,480.234L 239.999,480.234z M 24.003,40.234
		c 8.837,0.00, 16.002-7.165, 16.002-16.002S 32.84,8.23, 24.003,8.23s-16.002,7.165-16.002,16.002S 15.166,40.234, 24.003,40.234z
		 M 104.005,176.235c0.00,8.829-0.836,16.003, 7.993,16.003l0.00,0.00c 8.846,0.00, 8.001-7.174, 8.001-16.003l0.00-192.008 l-15.994,0.00 l0.00,0.00l0.00,0.00
		c0.00,17.674-14.321,32.004-31.996,32.004l0.00,16.002 c 12.346,0.00, 23.487-4.798, 31.996-12.455L 104.005,176.235 z M 176.007,64.237
		c-8.838,0.00-8.001,7.157-8.001,15.994l0.00,64.00 c0.00,8.837-0.837,16.002, 8.001,16.002c 8.829,0.00, 8.001-7.165, 8.001-16.002l0.00-64.00 
		C 184.008,71.395, 184.836,64.237, 176.007,64.237z M 176.007,32.233c 8.829,0.00, 16.002-7.165, 16.002-16.002
		c0.00-8.829-7.173-16.002-16.002-16.002c-8.838,0.00-16.002,7.173-16.002,16.002C 160.005,25.068, 167.169,32.233, 176.007,32.233z
		 M 239.999,192.238L 239.999,192.238c 8.845,0.00, 8.001-7.174, 8.001-16.003l0.00-144.143 c 14.596,19.472, 37.786,32.145, 64.008,32.145l0.00-16.002 
		c-35.349,0.00-64.008-28.66-64.008-64.008l-15.994,0.00 c0.00,2.188, 0.148,4.32, 0.32,6.454c-0.422,2.672-0.32,5.953-0.32,9.548L 232.006,176.235 
		C 232.006,185.064, 231.17,192.238, 239.999,192.238z" horiz-adv-x="384"  />
<glyph unicode="&#xe015;" d="M 288.003,101.578l0.00,35.051 
		c 19.111,11.072, 31.996,31.699, 31.996,55.375c0.00,35.34-28.652,63.993-64.002,63.993c-12.797,0.00-24.666-3.845-34.668-10.33
		c-9.852,42.545-47.794,74.338-93.332,74.338c-53.022,0.00-95.996-42.99-95.996-96.004c0.00-28.403, 12.399-53.834, 32.004-71.409l0.00-39.332 
		C 25.782,135.402-0.002,176.65-0.002,224.00c0.00,70.688, 57.312,128.00, 128.00,128.00c 48.037,0.00, 89.839-26.496, 111.732-65.641
		c 5.314,0.906, 10.697,1.641, 16.268,1.641c 53.023,0.00, 96.006-42.982, 96.006-95.997C 352.003,150.217, 325.257,114.775, 288.003,101.578z
		 M 111.996,160.00c 8.845,0.00, 16.002-7.166, 16.002-16.002c0.00-8.838-7.157-16.002-16.002-16.002c-8.829,0.00-15.994,7.164-15.994,16.002
		C 96.001,152.834, 103.167,160.00, 111.996,160.00z M 111.996,96.00c 8.845,0.00, 16.002-7.166, 16.002-16.002c0.00-8.838-7.157-15.994-16.002-15.994
		c-8.829,0.00-15.994,7.156-15.994,15.994C 96.001,88.834, 103.167,96.00, 111.996,96.00z M 176.003,127.996
		c 8.83,0.00, 16.001-7.158, 16.001-16.002c0.00-8.83-7.172-15.994-16.001-15.994c-8.845,0.00-16.002,7.164-16.002,15.994
		C 160.001,120.838, 167.159,127.996, 176.003,127.996z M 176.003,64.004c 8.83,0.00, 16.001-7.174, 16.001-16.002
		c0.00-8.838-7.172-16.002-16.001-16.002c-8.845,0.00-16.002,7.164-16.002,16.002C 160.001,56.83, 167.159,64.004, 176.003,64.004z
		 M 239.995,160.00c 8.846,0.00, 16.002-7.166, 16.002-16.002c0.00-8.838-7.156-16.002-16.002-16.002c-8.828,0.00-15.994,7.164-15.994,16.002
		C 224.001,152.834, 231.167,160.00, 239.995,160.00z M 239.995,96.00c 8.846,0.00, 16.002-7.166, 16.002-16.002c0.00-8.838-7.156-15.994-16.002-15.994
		c-8.828,0.00-15.994,7.156-15.994,15.994C 224.001,88.834, 231.167,96.00, 239.995,96.00z" horiz-adv-x="352"  />
<glyph unicode="&#xe016;" d="M 416.006,271.999l-32.005,0.00 c-8.837,0.00-16.002,7.165-16.002,16.002
		s 7.165,16.002, 16.002,16.002l 32.005,0.00 c 8.828,0.00, 15.994-7.165, 15.994-16.002S 424.834,271.999, 416.006,271.999z M 353.138,378.511
		c-6.25-6.251-16.377-6.251-22.627,0.00c-6.251,6.251-6.251,16.378,0.00,22.628l 22.627,22.628c 6.251,6.251, 16.378,6.251, 22.628,0.00
		c 6.251-6.251, 6.251-16.377,0.00-22.628L 353.138,378.511z M 329.557,253.636L 329.557,253.636c 13.994-16.674, 22.44-38.162, 22.44-61.632
		c0.00-41.787-26.737-77.229-63.992-90.426l0.00,35.051 c 19.112,11.072, 31.996,31.699, 31.996,55.375c0.00,35.34-28.651,63.993-64.00,63.993
		c-12.799,0.00-24.667-3.845-34.676-10.33c-9.854,42.545-47.788,74.338-93.324,74.338c-53.022,0.00-95.997-42.99-95.997-96.004
		c0.00-28.403, 12.40-53.834, 31.996-71.409l0.00-39.332 C 25.785,135.402,0.00,176.65,0.00,224.00c0.00,70.688, 57.305,128.00, 128.001,128.00
		c 12.579,0.00, 24.722-1.859, 36.191-5.243c 17.564,22.628, 44.951,37.239, 75.807,37.239c 53.022,0.00, 96.004-42.975, 96.004-95.996
		C 336.003,275.874, 333.659,264.326, 329.557,253.636z M 239.999,352.00c-17.697,0.00-33.723-7.188-45.303-18.807
		c 18.722-11.479, 34.286-27.621, 45.037-46.834c 5.313,0.906, 10.696,1.641, 16.268,1.641c 17.002,0.00, 32.949-4.47, 46.803-12.221l0.00,0.00
		c 0.766,3.954, 1.203,8.032, 1.203,12.221C 304.007,323.348, 275.347,352.00, 239.999,352.00z M 239.999,416.00c-8.829,0.00-16.002,7.157-16.002,16.002
		L 223.997,463.999 C 223.997,472.835, 231.17,480.00, 239.999,480.00c 8.837,0.00, 16.002-7.165, 16.002-16.002l0.00-31.996 C 256.001,423.158, 248.836,416.00, 239.999,416.00z
		 M 126.859,378.511l-22.627,22.628c-6.243,6.251-6.243,16.377,0.00,22.628c 6.25,6.251, 16.385,6.251, 22.627,0.00l 22.628-22.628
		c 6.251-6.25, 6.251-16.377,0.00-22.628C 143.245,372.26, 133.11,372.26, 126.859,378.511z M 111.999,160.00
		c 8.837,0.00, 16.002-7.166, 16.002-16.002c0.00-8.838-7.165-16.002-16.002-16.002c-8.83,0.00-16.002,7.164-16.002,16.002
		C 95.997,152.834, 103.169,160.00, 111.999,160.00z M 111.999,96.00c 8.837,0.00, 16.002-7.166, 16.002-16.002c0.00-8.838-7.165-15.994-16.002-15.994
		c-8.83,0.00-16.002,7.156-16.002,15.994C 95.997,88.834, 103.169,96.00, 111.999,96.00z M 176.007,127.996
		c 8.829,0.00, 15.994-7.158, 15.994-16.002c0.00-8.83-7.165-15.994-15.994-15.994c-8.845,0.00-16.002,7.164-16.002,15.994
		C 160.005,120.838, 167.162,127.996, 176.007,127.996z M 176.007,64.004c 8.829,0.00, 15.994-7.174, 15.994-16.002
		c0.00-8.838-7.165-16.002-15.994-16.002c-8.845,0.00-16.002,7.164-16.002,16.002C 160.005,56.83, 167.162,64.004, 176.007,64.004z
		 M 239.999,160.00c 8.837,0.00, 16.002-7.166, 16.002-16.002c0.00-8.838-7.165-16.002-16.002-16.002c-8.829,0.00-16.002,7.164-16.002,16.002
		C 223.997,152.834, 231.17,160.00, 239.999,160.00z M 239.999,96.00c 8.837,0.00, 16.002-7.166, 16.002-16.002c0.00-8.838-7.165-15.994-16.002-15.994
		c-8.829,0.00-16.002,7.156-16.002,15.994C 223.997,88.834, 231.17,96.00, 239.999,96.00z" horiz-adv-x="448"  />
<glyph unicode="&#xe017;" d="M 334.557,247.065L 334.557,247.065
		c 10.955-15.596, 17.44-34.559, 17.44-55.061c0.00-41.787-26.737-77.229-63.993-90.426L 288.004,136.63 c 19.104,11.072, 31.997,31.699, 31.997,55.375
		c0.00,35.34-28.652,63.992-64.001,63.992c-12.806,0.00-24.674-3.845-34.676-10.33c-9.853,42.545-47.787,74.338-93.324,74.338
		c-53.021,0.00-95.996-42.99-95.996-96.004c0.00-28.402, 12.40-53.835, 31.996-71.408l0.00-39.333 C 25.776,135.403,0.00,176.651,0.00,224.001
		c0.00,70.688, 57.304,128.00, 128.00,128.00c 16.018,0.00, 31.316-3.008, 45.443-8.384l0.00,0.00C 186.523,381.075, 222.074,408.00, 264.002,408.00
		c 6.039,0.00, 11.923-0.625, 17.658-1.688c-1.047-4.61-1.656-9.392-1.656-14.314c0.00-35.349, 28.645-63.992, 63.992-63.992
		c 4.93,0.00, 9.704,0.602, 14.314,1.656c 1.062-5.735, 1.688-11.626, 1.688-17.658C 359.998,286.923, 350.309,264.17, 334.557,247.065z
		 M 249.688,374.34c-23.198-5.313-41.396-23.284-47.396-46.209c 15.346-10.978, 28.191-25.222, 37.441-41.771
		c 5.313,0.906, 10.689,1.641, 16.268,1.641c 20.94,0.00, 40.271-6.782, 56.047-18.175l0.00,0.00c 6.867,7.845, 11.885,17.347, 14.291,27.863
		C 287.496,304.925, 256.922,335.499, 249.688,374.34z M 111.998,160.00c 8.838,0.00, 16.002-7.165, 16.002-16.002s-7.164-16.002-16.002-16.002
		c-8.837,0.00-16.002,7.165-16.002,16.002S 103.161,160.00, 111.998,160.00z M 111.998,96.00c 8.838,0.00, 16.002-7.165, 16.002-16.002
		s-7.164-15.994-16.002-15.994c-8.837,0.00-16.002,7.157-16.002,15.994S 103.161,96.00, 111.998,96.00z M 175.998,127.996
		c 8.838,0.00, 16.002-7.157, 16.002-16.002c0.00-8.829-7.164-15.994-16.002-15.994c-8.837,0.00-15.994,7.165-15.994,15.994
		C 160.004,120.839, 167.161,127.996, 175.998,127.996z M 175.998,64.004c 8.838,0.00, 16.002-7.173, 16.002-16.002
		c0.00-8.837-7.164-16.002-16.002-16.002c-8.837,0.00-15.994,7.165-15.994,16.002C 160.004,56.831, 167.161,64.004, 175.998,64.004z
		 M 239.998,160.00c 8.838,0.00, 16.002-7.165, 16.002-16.002s-7.164-16.002-16.002-16.002c-8.836,0.00-16.002,7.165-16.002,16.002
		S 231.162,160.00, 239.998,160.00z M 239.998,96.00c 8.838,0.00, 16.002-7.165, 16.002-16.002s-7.164-15.994-16.002-15.994
		c-8.836,0.00-16.002,7.157-16.002,15.994S 231.162,96.00, 239.998,96.00z" horiz-adv-x="384"  />
<glyph unicode="&#xe018;" d="M 271.868,97.437l0.00,32.661 c 27.59,7.117, 48.006,32.09, 48.006,61.906
		c0.00,35.34-28.66,63.992-64.00,63.992c-12.807,0.00-24.675-3.845-34.676-10.33c-9.854,42.545-47.787,74.338-93.324,74.338
		c-53.022,0.00-96.004-42.99-96.004-96.004c0.00-35.513, 19.338-66.446, 47.998-83.05l0.00-35.56 C 32.979,124.386-0.126,170.298-0.126,224.00
		c0.00,70.688, 57.303,128.00, 128.00,128.00c 48.037,0.00, 89.839-26.496, 111.732-65.641c 5.312,0.906, 10.689,1.641, 16.268,1.641
		c 53.015,0.00, 95.996-42.982, 95.996-95.996C 351.87,144.442, 317.257,105.07, 271.868,97.437z M 120.443,143.997
		c 4.423,7.657, 14.204,10.275, 21.862,5.86l 17.564-10.142l0.00,20.283 c0.00,8.837, 7.164,16.002, 16.002,16.002
		c 8.837,0.00, 16.002-7.165, 16.002-16.002l0.00-20.283 l 17.564,10.142c 7.657,4.415, 17.439,1.797, 21.854-5.86
		c 4.423-7.649, 1.797-17.439-5.853-21.854l-17.572-10.149l 17.572-10.142c 7.649-4.415, 10.275-14.205, 5.853-21.854
		c-4.415-7.649-14.197-10.274-21.854-5.853l-17.564,10.143l0.00-20.284 c0.00-8.845-7.165-16.002-16.002-16.002
		c-8.838,0.00-16.002,7.157-16.002,16.002l0.00,20.284 l-17.564-10.143c-7.658-4.422-17.439-1.797-21.862,5.853
		c-4.415,7.649-1.798,17.439, 5.86,21.854l 17.564,10.142l-17.564,10.149C 118.646,126.558, 116.028,136.348, 120.443,143.997z
		 M 175.872,95.999c 8.837,0.00, 16.002,7.165, 16.002,15.994c0.00,8.845-7.165,16.002-16.002,16.002c-8.838,0.00-16.002-7.157-16.002-16.002
		C 159.87,103.164, 167.034,95.999, 175.872,95.999z" horiz-adv-x="352"  />
<glyph unicode="&#xe019;" d="M 415.997,272.232l-32.004,0.00 c-8.837,0.00-15.994,7.165-15.994,16.002
		s 7.157,16.002, 15.994,16.002l 32.004,0.00 c 8.838,0.00, 16.002-7.165, 16.002-16.002S 424.835,272.232, 415.997,272.232z M 353.138,378.745
		c-6.25-6.251-16.385-6.251-22.627,0.00c-6.252,6.251-6.252,16.378,0.00,22.628l 22.627,22.628c 6.243,6.251, 16.377,6.251, 22.62,0.00
		c 6.251-6.251, 6.251-16.377,0.00-22.628L 353.138,378.745z M 329.549,253.87L 329.549,253.87c 13.994-16.674, 22.448-38.161, 22.448-61.632
		c0.00-47.562-34.613-86.934-80.002-94.567l0.00,32.661 c 27.59,7.117, 47.998,32.09, 47.998,61.906c0.00,35.34-28.652,63.992-63.992,63.992
		c-12.807,0.00-24.676-3.845-34.676-10.33c-9.854,42.545-47.796,74.338-93.332,74.338c-53.016,0.00-95.997-42.99-95.997-96.004
		c0.00-35.513, 19.331-66.446, 47.998-83.05l0.00-35.56 C 33.105,124.62,0.00,170.532,0.00,224.234c0.00,70.688, 57.304,128.00, 127.993,128.00
		c 12.587,0.00, 24.721-1.859, 36.199-5.243c 17.564,22.628, 44.943,37.239, 75.807,37.239c 53.014,0.00, 95.996-42.975, 95.996-95.996
		C 335.995,276.107, 333.651,264.56, 329.549,253.87z M 239.999,352.234c-17.705,0.00-33.723-7.188-45.311-18.807
		c 18.729-11.479, 34.293-27.621, 45.045-46.834c 5.305,0.906, 10.688,1.641, 16.268,1.641c 17.002,0.00, 32.949-4.47, 46.803-12.221l0.00,0.00
		c 0.766,3.954, 1.195,8.032, 1.195,12.221C 303.999,323.582, 275.339,352.234, 239.999,352.234z M 239.999,416.234
		c-8.838,0.00-16.002,7.157-16.002,16.002L 223.997,464.232 c0.00,8.837, 7.164,16.002, 16.002,16.002c 8.837,0.00, 16.002-7.165, 16.002-16.002l0.00-31.996 
		C 256.001,423.392, 248.836,416.234, 239.999,416.234z M 126.859,378.745l-22.628,22.628c-6.25,6.251-6.25,16.377,0.00,22.628
		c 6.251,6.251, 16.377,6.251, 22.628,0.00l 22.628-22.628c 6.251-6.25, 6.251-16.377,0.00-22.628
		C 143.237,372.494, 133.11,372.494, 126.859,378.745z M 120.569,144.231c 4.423,7.657, 14.205,10.275, 21.855,5.86l 17.572-10.142l0.00,20.283 
		c0.00,8.837, 7.164,16.002, 16.002,16.002c 8.836,0.00, 15.994-7.165, 15.994-16.002l0.00-20.283 l 17.572,10.142
		c 7.649,4.415, 17.439,1.797, 21.854-5.86c 4.423-7.649, 1.798-17.439-5.852-21.854l-17.572-10.149l 17.572-10.142
		c 7.649-4.415, 10.274-14.205, 5.852-21.854c-4.414-7.649-14.204-10.274-21.854-5.853l-17.572,10.143l0.00-20.284 
		c0.00-8.845-7.158-16.002-15.994-16.002c-8.838,0.00-16.002,7.157-16.002,16.002l0.00,20.284 l-17.572-10.143
		c-7.65-4.422-17.433-1.797-21.855,5.853c-4.414,7.649-1.797,17.439, 5.86,21.854l 17.565,10.142l-17.565,10.149
		C 118.772,126.792, 116.155,136.582, 120.569,144.231z M 175.999,96.233c 8.836,0.00, 15.994,7.165, 15.994,15.994
		c0.00,8.845-7.158,16.002-15.994,16.002c-8.838,0.00-16.002-7.157-16.002-16.002C 159.997,103.398, 167.161,96.233, 175.999,96.233z" horiz-adv-x="448"  />
<glyph unicode="&#xe01a;" d="M 334.566,246.799L 334.566,246.799
		c 10.954-15.596, 17.439-34.559, 17.439-55.061c0.00-41.787-26.738-77.229-64.00-90.426l0.00,35.051 c 19.111,11.072, 31.996,31.699, 31.996,55.375
		c0.00,35.34-28.652,63.992-64.00,63.992c-12.799,0.00-24.668-3.845-34.669-10.33c-9.86,42.545-47.795,74.338-93.332,74.338
		c-53.015,0.00-95.997-42.99-95.997-96.004c0.00-28.402, 12.40-53.835, 31.997-71.408l0.00-39.333 C 25.785,135.137,0.00,176.385,0.00,223.734
		c0.00,70.688, 57.312,128.00, 128.001,128.00c 16.018,0.00, 31.316-3.008, 45.443-8.384l0.00,0.00c 13.079,37.458, 48.631,64.383, 90.558,64.383
		c 6.04,0.00, 11.932-0.625, 17.666-1.688c-1.055-4.61-1.664-9.392-1.664-14.314c0.00-35.349, 28.652-63.992, 64.00-63.992
		c 4.924,0.00, 9.697,0.602, 14.307,1.656c 1.07-5.735, 1.695-11.626, 1.695-17.658C 360.006,286.656, 350.311,263.903, 334.566,246.799z
		 M 249.695,374.073c-23.205-5.313-41.395-23.284-47.396-46.209l0.00,0.00c 15.338-10.978, 28.184-25.222, 37.436-41.771
		c 5.312,0.906, 10.695,1.641, 16.268,1.641c 20.947,0.00, 40.27-6.782, 56.045-18.175l0.00,0.00c 6.877,7.845, 11.893,17.347, 14.291,27.863
		C 287.498,304.658, 256.932,335.232, 249.695,374.073z M 120.578,143.731c 4.414,7.657, 14.205,10.275, 21.854,5.86l 17.572-10.142l0.00,20.283 
		c0.00,8.837, 7.165,16.002, 16.002,16.002c 8.829,0.00, 15.994-7.165, 15.994-16.002l0.00-20.283 l 17.573,10.142
		c 7.648,4.415, 17.439,1.797, 21.854-5.86c 4.423-7.649, 1.797-17.439-5.852-21.854l-17.573-10.149l 17.573-10.142
		c 7.648-4.415, 10.274-14.205, 5.852-21.854c-4.414-7.649-14.205-10.274-21.854-5.853l-17.573,10.143l0.00-20.284 
		c0.00-8.845-7.165-16.002-15.994-16.002c-8.837,0.00-16.002,7.157-16.002,16.002l0.00,20.284 l-17.572-10.143
		c-7.649-4.422-17.44-1.797-21.854,5.853s-1.797,17.439, 5.853,21.854l 17.572,10.142l-17.572,10.149
		C 118.781,126.292, 116.164,136.082, 120.578,143.731z M 176.007,95.733c 8.829,0.00, 15.994,7.165, 15.994,15.994
		c0.00,8.845-7.165,16.002-15.994,16.002c-8.837,0.00-16.002-7.157-16.002-16.002C 160.005,102.898, 167.17,95.733, 176.007,95.733z" horiz-adv-x="384"  />
<glyph unicode="&#xe01b;" d="M 335.872,96.00l-320.00,0.00 c-8.837,0.00-16.002,7.164-16.002,15.994
		c0.00,8.844, 7.165,16.002, 16.002,16.002l 320.00,0.00 c 8.838,0.00, 16.002-7.158, 16.002-16.002C 351.874,103.164, 344.71,96.00, 335.872,96.00z
		 M 335.872,160.00l-320.00,0.00 c-8.837,0.00-16.002,7.164-16.002,16.002c0.00,8.828, 7.165,16.002, 16.002,16.002l 320.00,0.00 
		c 8.838,0.00, 16.002-7.174, 16.002-16.002C 351.874,167.164, 344.71,160.00, 335.872,160.00z M 255.87,255.997
		c-12.805,0.00-24.666-3.845-34.668-10.33c-9.861,42.545-47.795,74.338-93.333,74.338c-53.014,0.00-95.996-42.99-95.996-96.004L-0.13,224.001 
		c0.00,70.688, 57.312,128.00, 128.00,128.00c 48.037,0.00, 89.84-26.496, 111.733-65.641C 244.917,287.266, 250.30,288.00, 255.87,288.00
		c 41.779,0.00, 77.229-26.738, 90.418-64.00l-35.051,0.00 C 300.165,243.112, 279.546,255.997, 255.87,255.997z M 15.872,64.004l 320.00,0.00 
		c 8.838,0.00, 16.002-7.174, 16.002-16.002c0.00-8.838-7.164-16.002-16.002-16.002l-320.00,0.00 c-8.837,0.00-16.002,7.164-16.002,16.002
		C-0.13,56.83, 7.035,64.004, 15.872,64.004z" horiz-adv-x="352"  />
<glyph unicode="&#xe01c;" d="M 415.997,271.999l-31.996,0.00 c-8.837,0.00-16.002,7.165-16.002,16.002
		s 7.165,16.002, 16.002,16.002l 31.996,0.00 c 8.837,0.00, 16.002-7.165, 16.002-16.002S 424.834,271.999, 415.997,271.999z M 353.138,378.511
		c-6.251-6.251-16.377-6.251-22.628,0.00s-6.251,16.378,0.00,22.628l 22.628,22.628c 6.251,6.251, 16.377,6.251, 22.628,0.00
		c 6.242-6.251, 6.242-16.377,0.00-22.628L 353.138,378.511z M 329.557,253.636L 329.557,253.636c 7.298-8.696, 13.041-18.721, 16.908-29.636
		l-35.098,0.00 c-11.072,19.111-31.691,31.996-55.367,31.996c-12.806,0.00-24.666-3.845-34.676-10.33
		c-9.853,42.545-47.787,74.338-93.324,74.338c-53.021,0.00-96.004-42.99-96.004-96.004L0.00,224.00 c0.00,70.688, 57.304,128.00, 128.00,128.00
		c 12.58,0.00, 24.715-1.859, 36.191-5.243c 17.565,22.628, 44.951,37.239, 75.807,37.239c 53.022,0.00, 96.004-42.975, 96.004-95.996
		C 336.002,275.874, 333.658,264.326, 329.557,253.636z M 239.998,352.00c-17.697,0.00-33.723-7.188-45.303-18.807
		c 18.722-11.479, 34.286-27.621, 45.037-46.834C 245.046,287.266, 250.43,288.00, 256.00,288.00c 17.002,0.00, 32.949-4.47, 46.803-12.221l0.00,0.00
		c 0.766,3.954, 1.195,8.032, 1.195,12.221C 303.998,323.348, 275.347,352.00, 239.998,352.00z M 239.998,416.00c-8.836,0.00-16.002,7.157-16.002,16.002
		L 223.996,463.999 C 223.996,472.835, 231.162,480.00, 239.998,480.00C 248.836,480.00, 256.00,472.835, 256.00,463.999l0.00-31.996 C 256.00,423.158, 248.836,416.00, 239.998,416.00z
		 M 126.859,378.511l-22.62,22.628c-6.251,6.251-6.251,16.377,0.00,22.628c 6.243,6.251, 16.377,6.251, 22.62,0.00l 22.628-22.628
		c 6.251-6.25, 6.251-16.377,0.00-22.628C 143.244,372.26, 133.11,372.26, 126.859,378.511z M 16.002,192.004l 320.00,0.00 
		c 8.83,0.00, 15.995-7.174, 15.995-16.002c0.00-8.838-7.165-16.002-15.995-16.002l-320.00,0.00 C 7.164,160.00,0.00,167.164,0.00,176.002
		C0.00,184.83, 7.164,192.004, 16.002,192.004z M 16.002,127.996l 320.00,0.00 c 8.83,0.00, 15.995-7.158, 15.995-16.002
		c0.00-8.83-7.165-15.994-15.995-15.994l-320.00,0.00 C 7.164,96.00,0.00,103.164,0.00,111.994C0.00,120.838, 7.164,127.996, 16.002,127.996z M 16.002,64.004
		l 320.00,0.00 c 8.83,0.00, 15.995-7.174, 15.995-16.002c0.00-8.838-7.165-16.002-15.995-16.002l-320.00,0.00 C 7.164,32.00,0.00,39.164,0.00,48.002
		C0.00,56.83, 7.164,64.004, 16.002,64.004z" horiz-adv-x="448"  />
<glyph unicode="&#xe01d;" d="M 334.573,247.074L 334.573,247.074
		c 4.938-7.04, 8.814-14.838, 11.752-23.073l 0.148,0.00 l0.00,0.00l-35.10,0.00 l0.00,0.00l0.00,0.00c-11.07,19.111-31.699,31.996-55.373,31.996
		c-12.799,0.00-24.66-3.844-34.668-10.321c-9.854,42.536-47.795,74.329-93.333,74.329c-53.015,0.00-95.997-42.981-95.997-96.004l0.00,0.00L0.00,224.001 l0.00,0.00
		c0.00,70.688, 57.312,128.00, 128.00,128.00c 16.025,0.00, 31.316-3.008, 45.443-8.384l0.00,0.00c 13.079,37.466, 48.639,64.384, 90.557,64.384
		c 6.049,0.00, 11.939-0.625, 17.666-1.688c-1.055-4.609-1.664-9.384-1.664-14.313c0.00-35.349, 28.66-63.993, 64.002-63.993
		c 4.93,0.00, 9.695,0.609, 14.305,1.657c 1.072-5.735, 1.697-11.619, 1.697-17.659C 360.007,286.923, 350.31,264.17, 334.573,247.074z
		 M 249.702,374.34c-23.205-5.305-41.402-23.284-47.396-46.201l0.00,0.00c 15.33-10.978, 28.176-25.229, 37.428-41.778
		c 5.312,0.914, 10.703,1.641, 16.268,1.641c 20.955,0.00, 40.27-6.782, 56.055-18.174l0.00,0.00c 6.867,7.845, 11.883,17.354, 14.281,27.862
		C 287.505,304.925, 256.931,335.499, 249.702,374.34z M 16.002,192.005l 320.009,0.00 c 8.83,0.00, 15.994-7.165, 15.994-16.002
		s-7.164-16.002-15.994-16.002L 16.002,160.001 C 7.173,160.001,0.00,167.166,0.00,176.003S 7.173,192.005, 16.002,192.005z M 16.002,127.997l 320.009,0.00 
		c 8.83,0.00, 15.994-7.157, 15.994-15.994s-7.164-16.002-15.994-16.002L 16.002,96.001 C 7.173,96.001,0.00,103.166,0.00,112.003
		S 7.173,127.997, 16.002,127.997z M 16.002,64.005l 320.009,0.00 c 8.83,0.00, 15.994-7.165, 15.994-16.003c0.00-8.837-7.164-16.002-15.994-16.002
		L 16.002,32.00 C 7.173,32.00,0.00,39.165,0.00,48.002C0.00,56.84, 7.173,64.005, 16.002,64.005z" horiz-adv-x="384"  />
<glyph unicode="&#xe01e;" d="M 9.261,176.002c-2.094,5.165-3.781,10.524-5.188,16.002l 347.80,0.00 
		c0.00-5.47-0.562-10.782-1.445-16.002L 9.261,176.002 z M 65.957,336.006C 84.31,346.172, 105.399,352.00, 127.871,352.00
		c 22.447,0.00, 43.489-5.844, 61.82-15.994L 65.957,336.006 z M 0.979,240.002c 0.68,5.454, 1.743,10.774, 3.095,15.994l 323.212,0.00 
		c 4.406-4.907, 8.312-10.251, 11.641-15.994L 0.979,240.002 z M 9.261,271.998c 2.251,5.548, 4.907,10.877, 7.876,16.002l 221.481,0.00 
		c 0.32-0.547, 0.672-1.078, 0.984-1.641c 5.312,0.914, 10.705,1.641, 16.268,1.641c 19.611,0.00, 37.834-5.907, 53.023-16.002L 9.261,271.998 z
		 M 28.045,304.002c 4.641,5.782, 9.798,11.104, 15.361,16.002l 168.997,0.00 c 5.525-4.883, 10.611-10.243, 15.229-16.002L 28.045,304.002 z
		 M 350.429,208.006L 0.979,208.006 C 0.323,213.257-0.13,218.569-0.13,224.00l 346.426,0.00 C 348.116,218.851, 349.507,213.507, 350.429,208.006z
		 M 346.296,160.00c-1.977-5.595-4.438-10.939-7.369-16.002L 28.045,143.998 c-4.04,5.031-7.657,10.392-10.908,16.002L 346.296,160.00 z M 43.407,127.996
		l 283.879,0.00 c-5.439-6.063-11.58-11.471-18.393-15.994L 65.957,112.002 C 57.83,116.494, 50.322,121.917, 43.407,127.996z" horiz-adv-x="384"  />
<glyph unicode="&#xe01f;" d="M 416.069,271.994l-32.004,0.00 c-8.837,0.00-16.002,7.173-16.002,16.006
		c0.00,8.837, 7.165,16.002, 16.002,16.002l 32.004,0.00 c 8.829,0.00, 16.002-7.165, 16.002-16.002C 432.071,279.167, 424.898,271.994, 416.069,271.994z
		 M 353.202,378.511c-6.251-6.251-16.377-6.251-22.628,0.00s-6.251,16.377,0.00,22.628l 22.628,22.628c 6.251,6.25, 16.377,6.25, 22.628,0.00
		c 6.251-6.251, 6.251-16.377,0.00-22.628L 353.202,378.511z M 334.629,271.994L 9.456,271.994 c 2.25,5.548, 4.906,10.877, 7.876,16.006l 221.402,0.00 
		c 0.328-0.562, 0.75-1.07, 1.062-1.641c 5.313,0.914, 10.697,1.641, 16.268,1.641c 17.003,0.00, 32.958-4.473, 46.803-12.224l0.00,0.00
		c 0.767,3.953, 1.204,8.048, 1.204,12.224c0.00,35.349-28.66,64.00-64.009,64.00c-16.205,0.00-30.957-6.07-42.224-15.994L 66.15,336.006 
		C 84.505,346.171, 105.593,352.00, 128.064,352.00c 12.58,0.00, 24.722-1.859, 36.192-5.242c 17.564,22.628, 44.95,37.238, 75.806,37.238
		c 53.022,0.00, 96.005-42.974, 96.005-95.996C 336.067,282.526, 335.528,277.198, 334.629,271.994z M 240.062,416.00
		c-8.829,0.00-15.994,7.165-15.994,16.002L 224.068,463.999 C 224.068,472.835, 231.233,480.00, 240.062,480.00c 8.846,0.00, 16.002-7.165, 16.002-16.002l0.00-31.996 
		C 256.064,423.166, 248.908,416.00, 240.062,416.00z M 126.924,378.511l-22.62,22.628c-6.251,6.251-6.251,16.377,0.00,22.628
		c 6.243,6.25, 16.377,6.25, 22.62,0.00l 22.628-22.628c 6.251-6.251, 6.251-16.377,0.00-22.628C 143.309,372.26, 133.175,372.26, 126.924,378.511z
		 M 43.601,320.003l 168.67,0.00 c 5.571-4.891, 10.696-10.228, 15.346-16.002L 28.239,304.001 C 32.873,309.784, 38.038,315.105, 43.601,320.003z
		 M 350.687,208.002L 1.174,208.002 c-0.656,5.25-1.109,10.562-1.109,16.001l 346.465,0.00 C 348.357,218.846, 349.764,213.502, 350.687,208.002z
		 M 43.601,127.992l 283.88,0.00 c-5.438-6.064-11.58-11.471-18.394-15.986L 66.15,112.006 C 58.024,116.49, 50.508,121.912, 43.601,127.992z
		 M 17.332,159.996l 329.15,0.00 c-1.969-5.596-4.438-10.939-7.36-16.002L 28.239,143.994 C 24.20,149.025, 20.582,154.385, 17.332,159.996z
		 M 1.174,240.005c 0.68,5.454, 1.742,10.767, 3.094,15.986l 326.15,0.00 c-0.281-0.781-0.50-1.578-0.797-2.359l0.00,0.00
		c 3.562-4.235, 6.759-8.813, 9.556-13.627L 1.174,240.005 z M 4.268,192.00l 347.802,0.00 c0.00-5.471-0.57-10.783-1.445-16.002L 9.456,175.998 
		C 7.362,181.17, 5.674,186.529, 4.268,192.00z" horiz-adv-x="448"  />
<glyph unicode="&#xe020;" d="M 313.727,272.007c 5.97,7.415, 10.424,16.104, 12.611,25.69
		c-38.833,7.235-69.415,37.81-76.643,76.65c-20.471-4.68-37.013-19.236-44.756-38.333L 66.087,336.014 
		c 18.346,10.166, 39.442,15.994, 61.914,15.994c 16.018,0.00, 31.316-3.008, 45.442-8.384c 13.08,37.466, 48.632,64.384, 90.559,64.384
		c 6.04,0.00, 11.932-0.625, 17.658-1.688c-1.047-4.609-1.656-9.384-1.656-14.313c0.00-35.349, 28.652-63.993, 63.992-63.993
		c 4.931,0.00, 9.705,0.609, 14.314,1.657c 1.062-5.735, 1.688-11.619, 1.688-17.659c0.00-14.314-3.242-27.823-8.876-40.005L 313.727,272.007 z
		 M 351.997,192.012c0.00-5.469-0.562-10.781-1.438-16.002L 9.392,176.01 c-2.094,5.166-3.781,10.525-5.195,16.002L 351.997,192.012 z M 346.419,160.008
		c-1.978-5.594-4.438-10.939-7.36-16.002L 28.168,144.006 c-4.04,5.031-7.649,10.393-10.90,16.002L 346.419,160.008 z M 327.416,128.004
		c-5.438-6.062-11.579-11.471-18.393-15.994L 66.087,112.01 c-8.126,4.492-15.643,9.916-22.55,15.994L 327.416,128.004 z M 1.109,208.014
		C 0.453,213.266,0.00,218.578,0.00,224.009l 346.317,0.00 c 1.836-5.165, 3.336-10.478, 4.273-15.995L 1.109,208.014 z M 334.565,247.082
		c 1.57-2.25, 2.836-4.704, 4.22-7.071L 1.109,240.011 c 0.68,5.454, 1.743,10.774, 3.087,15.994l 337.565,0.00 
		C 339.512,252.911, 337.151,249.887, 334.565,247.082z M 308.789,272.007L 9.392,272.007 c 2.251,5.548, 4.907,10.877, 7.876,16.002l 221.427,0.00 
		c 0.32-0.562, 0.727-1.07, 1.039-1.641c 5.313,0.914, 10.696,1.641, 16.268,1.641C 275.55,288.009, 293.631,282.047, 308.789,272.007z
		 M 43.537,320.013l 168.911,0.00 c 5.517-4.859, 10.518-10.267, 15.127-16.002L 28.168,304.011 C 32.809,309.793, 37.974,315.114, 43.537,320.013z" horiz-adv-x="384"  />
<glyph unicode="&#xe021;" d="M 303.872,192.172L 303.872,192.172l-23.994,0.00 
		c-8.846,0.00-16.002,7.157-16.002,15.994s 7.156,16.002, 16.002,16.002l 23.994,0.00 c 8.838,0.00, 16.002,7.165, 16.002,15.994
		c0.00,8.845-7.164,16.002-16.002,16.002c-8.836,0.00-15.994,7.165-15.994,16.002s 7.158,16.002, 15.994,16.002
		c 1.102,0.00, 2.18-0.109, 3.227-0.328c 24.973-1.688, 44.771-22.269, 44.771-47.678C 351.87,213.659, 330.384,192.172, 303.872,192.172z
		 M 223.87,224.168l-16.002,0.00 l-55.992,0.00 L 47.872,224.168 c-8.837,0.00-15.994-7.165-15.994-16.002s 7.157-15.994, 15.994-15.994l 16.002,0.00 L 95.87,192.172 l 24.003,0.00 
		l 32.004,0.00 l 23.995,0.00 l 31.997,0.00 l 16.002,0.00 c 26.512,0.00, 48.006-21.495, 48.006-48.006c0.00-25.409-19.799-45.99-44.779-47.678
		c-1.039-0.211-2.117-0.32-3.227-0.32c-8.828,0.00-16.002,7.165-16.002,15.994c0.00,8.845, 7.174,16.002, 16.002,16.002
		c 8.846,0.00, 16.002,7.165, 16.002,16.002s-7.156,16.002-16.002,16.002l-16.002,0.00 l-31.997,0.00 l-23.995,0.00 l-32.004,0.00 L 95.87,160.168 L 63.874,160.168 L 47.872,160.168 
		c-26.512,0.00-47.998,21.487-47.998,47.998c0.00,25.401, 19.799,45.982, 44.771,47.678c 1.047,0.211, 2.125,0.32, 3.227,0.32l0.00,0.00l 104.005,0.00 
		l 55.992,0.00 l 16.002,0.00 c 8.846,0.00, 16.002,7.165, 16.002,16.002s-7.156,16.002-16.002,16.002c-8.828,0.00-16.002,7.157-16.002,16.002
		c0.00,8.829, 7.174,16.002, 16.002,16.002c 1.109,0.00, 2.188-0.117, 3.227-0.328c 24.98-1.688, 44.779-22.268, 44.779-47.678
		C 271.876,245.663, 250.382,224.168, 223.87,224.168z" horiz-adv-x="352"  />
<glyph unicode="&#xe022;" d="M 389.994,64.41l0.00-0.406 L 384.00,64.004 l-24.002,0.00 
		c-8.838,0.00-16.002,7.156-16.002,16.002c0.00,8.83, 7.164,15.994, 16.002,15.994L 384.00,96.00 c 8.838,0.00, 15.994,7.166, 15.994,16.002
		c0.00,8.838-7.156,15.994-15.994,15.994c-8.836,0.00-16.002,7.174-16.002,16.002c0.00,8.846, 7.166,16.002, 16.002,16.002
		c 1.102,0.00, 2.181-0.109, 3.22-0.328c 24.979-1.688, 44.778-22.268, 44.778-47.67C 431.998,87.531, 413.668,67.379, 389.994,64.41z
		 M 303.998,160.00c-8.837,0.00-16.002,7.166-16.002,16.002c0.00,8.838, 7.165,16.002, 16.002,16.002c 1.102,0.00, 2.18-0.109, 3.227-0.328
		c 24.973-1.688, 44.771-22.268, 44.771-47.678c0.00-24.471-18.33-44.623-41.997-47.584L 309.999,96.00 l-6.001,0.00 l-63.891,0.00 c-32.098,0.00-90.879,0.00-112.107,0.00
		c-8.838,0.00-16.002-7.164-16.002-15.994c0.00-8.846, 7.164-16.002, 16.002-16.002l 175.998,0.00 l 6.001,0.00 l0.00-0.422 
		c 23.667-2.953, 41.997-23.111, 41.997-47.584c0.00-25.402-19.799-45.982-44.771-47.67c-1.047-0.211-2.125-0.328-3.227-0.328
		c-8.837,0.00-16.002,7.164-16.002,16.002c0.00,8.836, 7.165,15.994, 16.002,15.994c 8.838,0.00, 16.002,7.172, 16.002,16.002
		c0.00,8.846-7.164,16.002-16.002,16.002L 128.00,32.00 l-6.001,0.00 l0.00,0.414 c-23.675,2.961-42.005,23.119-42.005,47.592
		c0.00,8.439, 2.352,16.26, 6.188,23.121C 36.059,120.473,0.00,167.971,0.00,224.00c0.00,70.688, 57.303,128.00, 128.00,128.00
		c 48.037,0.00, 89.839-26.495, 111.732-65.641C 245.045,287.274, 250.422,288.00, 256.00,288.00c 47.17,0.00, 86.315-34.051, 94.395-78.909
		c-11.157,7.963-24.401,13.166-38.794,14.526c-11.017,19.33-31.77,32.379-55.601,32.379c-12.807,0.00-24.675-3.844-34.676-10.321
		c-9.854,42.536-47.787,74.329-93.324,74.329c-53.022,0.00-96.004-42.981-96.004-96.004c0.00-53.014, 42.981-96.004, 96.004-96.004
		c 20.783,0.00, 65.227,0.00, 97.605,0.00l 78.393,0.00 c 8.838,0.00, 16.002,7.174, 16.002,16.002C 320.00,152.844, 312.836,160.00, 303.998,160.00z" horiz-adv-x="448"  />
<glyph unicode="&#xe023;" d="M 415.997,271.998l-32.004,0.00 c-8.837,0.00-15.994,7.165-15.994,16.002
		s 7.157,16.002, 15.994,16.002l 32.004,0.00 c 8.838,0.00, 16.002-7.165, 16.002-16.002S 424.835,271.998, 415.997,271.998z M 353.138,378.512
		c-6.25-6.251-16.385-6.251-22.627,0.00c-6.252,6.251-6.252,16.377,0.00,22.628l 22.627,22.628c 6.243,6.25, 16.377,6.25, 22.62,0.00
		c 6.251-6.251, 6.251-16.377,0.00-22.628L 353.138,378.512z M 329.549,253.637L 329.549,253.637c 7.298-8.696, 13.041-18.722, 16.917-29.637
		l-0.078,0.00 c 1.703-4.813, 3.078-9.774, 4.00-14.908c-11.15,7.962-24.394,13.166-38.786,14.525c-0.078,0.133-0.18,0.25-0.258,0.383l 0.023,0.00 
		c-11.071,19.111-31.691,31.996-55.366,31.996c-12.807,0.00-24.676-3.844-34.676-10.321c-9.854,42.536-47.796,74.329-93.332,74.329
		c-53.016,0.00-95.997-42.981-95.997-96.004l0.00,0.00c0.00-53.015, 42.981-96.004, 95.997-96.004c 20.791,0.00, 65.234,0.00, 97.613,0.00l 78.393,0.00 
		c 8.837,0.00, 15.994,7.173, 15.994,16.002c0.00,8.845-7.157,16.002-15.994,16.002s-16.002,7.165-16.002,16.002s 7.165,16.002, 16.002,16.002
		c 1.102,0.00, 2.18-0.109, 3.219-0.328c 24.98-1.688, 44.779-22.269, 44.779-47.678c0.00-24.472-18.33-44.623-41.998-47.584L 309.999,96.00 l-6.00,0.00 l-63.891,0.00 
		c-32.098,0.00-90.879,0.00-112.115,0.00c-8.83,0.00-15.995-7.165-15.995-15.994c0.00-8.846, 7.165-16.002, 15.995-16.002l 176.006,0.00 l 6.00,0.00 l0.00-0.423 
		c 23.668-2.953, 41.998-23.111, 41.998-47.584c0.00-25.401-19.799-45.981-44.779-47.669c-1.039-0.212-2.117-0.329-3.219-0.329
		c-8.837,0.00-16.002,7.165-16.002,16.003c0.00,8.836, 7.165,15.994, 16.002,15.994s 15.994,7.172, 15.994,16.001
		c0.00,8.846-7.157,16.002-15.994,16.002L 127.993,31.999 l-5.994,0.00 l0.00,0.414 c-23.674,2.962-42.005,23.12-42.005,47.593
		c0.00,8.438, 2.353,16.26, 6.188,23.12C 36.052,120.472,0.00,167.97,0.00,224.00c0.00,70.688, 57.304,128.00, 127.993,128.00
		c 12.587,0.00, 24.721-1.859, 36.199-5.242c 17.564,22.628, 44.943,37.238, 75.807,37.238c 53.014,0.00, 95.996-42.974, 95.996-95.996
		C 335.995,275.874, 333.651,264.325, 329.549,253.637z M 239.999,352.00c-17.705,0.00-33.723-7.188-45.311-18.807
		c 18.729-11.479, 34.293-27.613, 45.045-46.834c 5.305,0.914, 10.688,1.641, 16.268,1.641c 17.002,0.00, 32.949-4.469, 46.803-12.22l0.00,0.00
		c 0.766,3.953, 1.195,8.04, 1.195,12.22C 303.999,323.349, 275.339,352.00, 239.999,352.00z M 239.999,416.001
		c-8.838,0.00-16.002,7.165-16.002,16.002L 223.997,463.999 c0.00,8.837, 7.164,16.002, 16.002,16.002c 8.837,0.00, 16.002-7.165, 16.002-16.002l0.00-31.996 
		C 256.001,423.166, 248.836,416.001, 239.999,416.001z M 126.859,378.512L 104.231,401.14c-6.25,6.251-6.25,16.377,0.00,22.628
		c 6.251,6.25, 16.377,6.25, 22.628,0.00l 22.628-22.628c 6.251-6.251, 6.251-16.377,0.00-22.628
		C 143.237,372.261, 133.11,372.261, 126.859,378.512z M 343.996,80.006c0.00,8.829, 7.165,15.994, 16.002,15.994l 23.995,0.00 
		c 8.838,0.00, 16.002,7.165, 16.002,16.002s-7.164,15.994-16.002,15.994c-8.837,0.00-15.994,7.173-15.994,16.002
		c0.00,8.845, 7.157,16.002, 15.994,16.002c 1.109,0.00, 2.188-0.109, 3.227-0.328c 24.98-1.688, 44.779-22.269, 44.779-47.67
		c0.00-24.472-18.33-44.623-42.005-47.592l0.00-0.406 l-6.001,0.00 l-23.995,0.00 C 351.161,64.004, 343.996,71.16, 343.996,80.006z" horiz-adv-x="448"  />
<glyph unicode="&#xe024;" d="M 390.002,64.411l0.00-0.406 l-6.00,0.00 l-23.996,0.00 
		c-8.836,0.00-16.002,7.156-16.002,16.002c0.00,8.829, 7.166,15.994, 16.002,15.994l 23.996,0.00 c 8.837,0.00, 16.002,7.165, 16.002,16.002
		s-7.165,15.994-16.002,15.994c-8.838,0.00-16.002,7.173-16.002,16.002c0.00,8.845, 7.164,16.002, 16.002,16.002
		c 1.109,0.00, 2.188-0.109, 3.227-0.328c 24.98-1.688, 44.771-22.269, 44.771-47.67C 432.00,87.531, 413.678,67.38, 390.002,64.411z
		 M 346.317,224.001l 0.078,0.00 c 1.703-4.813, 3.079-9.774, 4.001-14.908c-11.15,7.962-24.402,13.166-38.795,14.525
		c-0.07,0.133-0.172,0.25-0.25,0.383l 0.023,0.00 c-11.071,19.111-31.699,31.996-55.373,31.996c-12.799,0.00-24.668-3.844-34.669-10.321
		c-9.86,42.536-47.795,74.329-93.332,74.329c-53.015,0.00-95.997-42.981-95.997-96.004l0.00,0.00c0.00-53.015, 42.982-96.004, 95.997-96.004
		c 20.784,0.00, 65.228,0.00, 97.606,0.00L 304.00,127.997 c 8.836,0.00, 16.002,7.173, 16.002,16.002c0.00,8.845-7.166,16.002-16.002,16.002
		c-8.83,0.00-15.994,7.165-15.994,16.002s 7.164,16.002, 15.994,16.002c 1.109,0.00, 2.188-0.109, 3.227-0.328
		c 24.979-1.688, 44.779-22.269, 44.779-47.678c0.00-24.472-18.33-44.623-42.006-47.584l0.00-0.414 l-6.00,0.00 l-63.891,0.00 c-32.099,0.00-90.871,0.00-112.108,0.00
		c-8.837,0.00-15.994-7.165-15.994-15.994c0.00-8.846, 7.157-16.002, 15.994-16.002L 304.00,64.005 l 6.00,0.00 l0.00-0.423 c 23.676-2.953, 42.006-23.111, 42.006-47.584
		c0.00-25.401-19.80-45.981-44.779-47.669C 306.188-31.883, 305.109-32.00, 304.00-32.00c-8.83,0.00-15.994,7.165-15.994,16.003
		c0.00,8.836, 7.164,15.994, 15.994,15.994c 8.836,0.00, 16.002,7.172, 16.002,16.001c0.00,8.846-7.166,16.002-16.002,16.002L 128.001,32.00 L 122.00,32.00 l0.00,0.414 
		c-23.667,2.962-41.997,23.12-41.997,47.593c0.00,8.438, 2.352,16.26, 6.188,23.12C 36.06,120.473,0.00,167.971,0.00,224.001
		c0.00,70.688, 57.312,128.00, 128.001,128.00c 16.018,0.00, 31.316-3.008, 45.443-8.384c 13.079,37.466, 48.631,64.384, 90.558,64.384
		c 6.04,0.00, 11.932-0.625, 17.666-1.688c-1.055-4.609-1.664-9.384-1.664-14.313c0.00-35.349, 28.652-63.993, 64.00-63.993
		c 4.924,0.00, 9.697,0.609, 14.307,1.657c 1.07-5.735, 1.695-11.619, 1.695-17.659c0.00-25.081-9.695-47.834-25.439-64.93
		C 339.504,240.034, 343.379,232.236, 346.317,224.001z M 249.695,374.34c-23.205-5.305-41.395-23.284-47.396-46.201l0.00,0.00
		c 15.338-10.978, 28.184-25.229, 37.436-41.778c 5.312,0.914, 10.695,1.641, 16.268,1.641c 20.947,0.00, 40.27-6.782, 56.045-18.174
		c 6.877,7.845, 11.893,17.354, 14.291,27.862C 287.498,304.925, 256.932,335.499, 249.695,374.34z" horiz-adv-x="448"  />
<glyph unicode="&#xe001;" d="M 416.005,272.006l-32.004,0.00 c-8.837,0.00-16.002,7.157-16.002,16.002
		c0.00,8.829, 7.165,15.994, 16.002,15.994l 32.004,0.00 c 8.829,0.00, 16.002-7.165, 16.002-15.994C 432.007,279.163, 424.834,272.006, 416.005,272.006z
		 M 353.138,378.519c-6.251-6.25-16.377-6.25-22.628,0.00c-6.251,6.244-6.251,16.377,0.00,22.621l 22.628,22.628
		c 6.251,6.25, 16.377,6.25, 22.628,0.00c 6.251-6.243, 6.251-16.377,0.00-22.628L 353.138,378.519z M 329.557,253.644L 329.557,253.644
		c 13.994-16.682, 22.448-38.16, 22.448-61.64c0.00-53.015-42.982-96.005-96.005-96.005c-22.205,0.00-102.419,0.00-128.00,0.00
		c-70.688,0.00-128.00,57.312-128.00,128.00C0.00,294.696, 57.312,352.00, 128.00,352.00c 12.58,0.00, 24.722-1.859, 36.192-5.235
		c 17.564,22.621, 44.95,37.239, 75.806,37.239c 53.022,0.00, 96.005-42.981, 96.005-95.996C 336.003,275.882, 333.658,264.325, 329.557,253.644
		z M 32.004,223.999c0.00-53.014, 42.974-95.996, 95.996-95.996c 28.934,0.00, 103.841,0.00, 128.00,0.00c 35.349,0.00, 64.001,28.66, 64.001,64.001
		c0.00,35.348-28.652,64.00-64.001,64.00c-12.798,0.00-24.667-3.853-34.668-10.329c-9.853,42.536-47.795,74.329-93.332,74.329
		C 74.978,320.004, 32.004,277.022, 32.004,223.999z M 239.998,352.00c-17.697,0.00-33.723-7.188-45.302-18.80
		c 18.721-11.485, 34.285-27.62, 45.036-46.834c 5.313,0.907, 10.697,1.642, 16.268,1.642c 17.003,0.00, 32.958-4.47, 46.803-12.22l0.00,0.00
		c 0.767,3.953, 1.204,8.031, 1.204,12.22C 304.007,323.349, 275.347,352.00, 239.998,352.00z M 239.998,416.008
		c-8.829,0.00-15.994,7.157-15.994,15.994L 224.004,463.999 C 224.004,472.843, 231.169,480.00, 239.998,480.00C 248.844,480.00, 256.00,472.843, 256.00,463.999l0.00-31.996 
		C 256.00,423.165, 248.844,416.008, 239.998,416.008z M 126.859,378.519l-22.62,22.621c-6.251,6.25-6.251,16.385,0.00,22.628
		c 6.243,6.25, 16.377,6.25, 22.62,0.00l 22.628-22.628c 6.251-6.243, 6.251-16.377,0.00-22.621C 143.244,372.269, 133.11,372.269, 126.859,378.519
		z" horiz-adv-x="448"  />
<glyph unicode="&#xe026;" d="M 415.997,271.997l-31.996,0.00 c-8.837,0.00-16.002,7.165-16.002,16.002
		s 7.165,16.002, 16.002,16.002l 31.996,0.00 c 8.837,0.00, 16.002-7.165, 16.002-16.002S 424.834,271.997, 415.997,271.997z M 353.138,378.511
		c-6.251-6.251-16.377-6.251-22.628,0.00s-6.251,16.377,0.00,22.628l 22.628,22.628c 6.251,6.25, 16.377,6.25, 22.628,0.00
		c 6.242-6.251, 6.242-16.377,0.00-22.628L 353.138,378.511z M 329.557,253.636L 329.557,253.636c 10.736-12.799, 18.166-28.441, 21.064-45.631
		l-0.062,0.00 c 0.875-5.22, 1.438-10.54, 1.438-16.002c0.00-53.022-42.981-96.004-95.997-96.004c-2.242,0.00-5.195,0.00-8.50,0.00l 28.675,35.293
		C 301.623,139.754, 320.00,163.718, 320.00,192.003c0.00,5.532-0.781,10.876-2.102,16.002l0.00,0.00c-7.109,27.581-32.09,47.99-61.898,47.99
		c-12.806,0.00-24.666-3.844-34.676-10.321c-9.853,42.536-47.787,74.329-93.324,74.329c-53.021,0.00-96.004-42.981-96.004-96.004
		c0.00-5.462, 0.562-10.782, 1.445-15.994l-0.109,0.00 c 6.11-36.388, 32.707-65.789, 67.508-76.049l-10.798-30.23
		c-47.232,14.643-82.651,55.93-88.94,106.279l0.00,0.00C 0.445,213.256,0.00,218.568,0.00,223.999c0.00,70.688, 57.304,128.00, 128.00,128.00
		c 12.58,0.00, 24.715-1.859, 36.191-5.242c 17.565,22.628, 44.951,37.238, 75.807,37.238c 53.022,0.00, 96.004-42.974, 96.004-95.996
		C 336.002,275.873, 333.658,264.324, 329.557,253.636z M 239.998,351.999c-17.697,0.00-33.723-7.188-45.303-18.807
		c 18.722-11.479, 34.286-27.613, 45.037-46.834c 5.313,0.914, 10.697,1.641, 16.268,1.641c 17.002,0.00, 32.949-4.469, 46.803-12.22l0.00,0.00
		c 0.766,3.953, 1.195,8.04, 1.195,12.22C 303.998,323.348, 275.347,351.999, 239.998,351.999z M 239.998,416.00
		c-8.836,0.00-16.002,7.165-16.002,16.002L 223.996,463.998 C 223.996,472.835, 231.162,480.00, 239.998,480.00C 248.836,480.00, 256.00,472.835, 256.00,463.998l0.00-31.996 
		C 256.00,423.165, 248.836,416.00, 239.998,416.00z M 126.859,378.511l-22.62,22.628c-6.251,6.251-6.251,16.377,0.00,22.628
		c 6.243,6.25, 16.377,6.25, 22.62,0.00l 22.628-22.628c 6.251-6.251, 6.251-16.377,0.00-22.628C 143.244,372.26, 133.11,372.26, 126.859,378.511z
		 M 159.996,208.005l 80.002,0.00 L 192.00,127.995l 56.00,0.00 l-103.998-128.00l 28.801,96.004l-52.804,0.00 L 159.996,208.005z" horiz-adv-x="448"  />
<glyph unicode="&#xe027;" d="M 334.573,247.07L 334.573,247.07
		c 8.031-11.447, 13.596-24.723, 16.025-39.068l-0.031,0.00 c 0.875-5.219, 1.438-10.54, 1.438-16.002c0.00-53.021-42.982-96.004-96.004-96.004
		c-2.234,0.00-5.189,0.00-8.494,0.00l 28.676,35.302c 25.449,8.454, 43.826,32.41, 43.826,60.702c0.00,5.532-0.781,10.877-2.102,16.002l0.00,0.00
		c-7.119,27.582-32.09,47.999-61.906,47.999c-12.799,0.00-24.66-3.853-34.668-10.33c-9.854,42.537-47.795,74.33-93.333,74.33
		c-53.015,0.00-95.997-42.982-95.997-96.005c0.00-5.461, 0.562-10.782, 1.438-15.994l-0.109,0.00 c 6.11-36.387, 32.707-65.789, 67.517-76.048
		l-10.799-30.23C 42.818,116.374, 7.392,157.66, 1.109,208.002l0.00,0.00C 0.453,213.253,0.00,218.566,0.00,223.996
		c0.00,70.697, 57.312,128.001, 128.00,128.001c 16.025,0.00, 31.316-3.001, 45.443-8.384l0.00,0.00c 13.079,37.466, 48.639,64.383, 90.557,64.383
		c 6.049,0.00, 11.939-0.625, 17.666-1.688c-1.055-4.61-1.664-9.384-1.664-14.307c0.00-35.348, 28.66-64.00, 64.002-64.00
		c 4.93,0.00, 9.695,0.609, 14.305,1.656c 1.072-5.728, 1.697-11.619, 1.697-17.658C 360.007,286.926, 350.31,264.166, 334.573,247.07z
		 M 249.702,374.336c-23.205-5.306-41.402-23.276-47.396-46.201l0.00,0.00c 15.33-10.979, 28.176-25.229, 37.428-41.779
		c 5.312,0.915, 10.703,1.642, 16.268,1.642c 20.955,0.00, 40.27-6.782, 56.055-18.167l0.00,0.00c 6.867,7.838, 11.883,17.347, 14.281,27.863
		C 287.505,304.929, 256.931,335.495, 249.702,374.336z M 160.004,208.002l 80.002,0.00 L 192.009,128.00l 55.998,0.00 L 144.002,0.00l 28.80,95.996l-52.795,0.00 
		L 160.004,208.002z" horiz-adv-x="384"  />
<glyph unicode="&#xe028;" d="M 368.003,196.107l-31.996,0.00 c-8.846,0.00-16.002,7.158-16.002,15.994
		c0.00,8.838, 7.156,16.002, 16.002,16.002l 31.996,0.00 c 8.836,0.00, 15.994-7.164, 15.994-16.002C 383.997,203.266, 376.839,196.107, 368.003,196.107z
		 M 305.144,302.613c-6.252-6.251-16.385-6.251-22.629,0.00c-6.25,6.251-6.25,16.377,0.00,22.628l 22.629,22.628
		c 6.242,6.251, 16.377,6.251, 22.627,0.00c 6.244-6.251, 6.244-16.377,0.00-22.628L 305.144,302.613z M 192.005,116.105
		c-53.023,0.00-96.005,42.982-96.005,95.996c0.00,53.022, 42.982,96.005, 96.005,96.005c 53.021,0.00, 95.996-42.982, 95.996-96.005
		C 288.001,159.088, 245.026,116.105, 192.005,116.105z M 192.005,276.103c-35.349,0.00-64.009-28.652-64.009-64.001
		c0.00-35.34, 28.66-64.00, 64.009-64.00c 35.348,0.00, 63.992,28.66, 63.992,64.00C 255.997,247.45, 227.353,276.103, 192.005,276.103z M 192.005,340.103
		c-8.838,0.00-16.002,7.165-16.002,16.002L 176.003,388.101 c0.00,8.837, 7.165,16.002, 16.002,16.002c 8.828,0.00, 16.002-7.165, 16.002-16.002l0.00-31.996 
		C 208.007,347.268, 200.833,340.103, 192.005,340.103z M 78.865,302.613l-22.628,22.628c-6.25,6.251-6.25,16.377,0.00,22.628
		c 6.251,6.251, 16.377,6.251, 22.628,0.00l 22.628-22.628c 6.251-6.251, 6.251-16.377,0.00-22.628S 85.116,296.362, 78.865,302.613z
		 M 64.003,212.102c0.00-8.836-7.165-15.994-16.002-15.994L 15.998,196.108 c-8.829,0.00-15.994,7.158-15.994,15.994
		c0.00,8.838, 7.165,16.002, 15.994,16.002l 32.004,0.00 C 56.838,228.104, 64.003,220.939, 64.003,212.102z M 78.865,121.599
		c 6.251,6.243, 16.377,6.243, 22.628,0.00c 6.251-6.251, 6.251-16.385,0.00-22.628l-22.628-22.628c-6.251-6.251-16.377-6.251-22.628,0.00
		c-6.25,6.243-6.25,16.377,0.00,22.628L 78.865,121.599z M 192.005,84.102c 8.828,0.00, 16.002-7.157, 16.002-15.994l0.00-32.004 
		c0.00-8.837-7.174-16.002-16.002-16.002c-8.838,0.00-16.002,7.165-16.002,16.002l0.00,32.004 
		C 176.002,76.944, 183.167,84.102, 192.005,84.102z M 305.144,121.599l 22.627-22.628c 6.244-6.251, 6.244-16.385,0.00-22.628
		c-6.25-6.251-16.385-6.251-22.627,0.00l-22.629,22.628c-6.25,6.243-6.25,16.377,0.00,22.628
		C 288.759,127.842, 298.892,127.842, 305.144,121.599z" horiz-adv-x="384"  />
<glyph unicode="&#xe029;" d="M 368.007,175.997l-32.004,0.00 c-8.838,0.00-15.994,7.165-15.994,16.002
		c0.00,8.838, 7.156,16.002, 15.994,16.002l 32.004,0.00 c 8.836,0.00, 15.994-7.164, 15.994-16.002C 384.001,183.162, 376.843,175.997, 368.007,175.997z
		 M 305.147,282.511c-6.252-6.251-16.385-6.251-22.629,0.00c-6.25,6.251-6.25,16.377,0.00,22.628l 22.629,22.628
		c 6.242,6.242, 16.377,6.242, 22.619,0.00c 6.25-6.251, 6.25-16.377,0.00-22.628L 305.147,282.511z M 282.425,160.003l-35.051,0.00 
		c 5.453,9.416, 8.625,20.323, 8.625,31.996c0.00,35.349-28.65,64.00-63.992,64.00c-35.347,0.00-64.007-28.651-64.007-64.00
		c0.00-11.673, 3.18-22.58, 8.642-31.996l-35.059,0.00 c-3.548,10.018-5.579,20.761-5.579,31.996c0.00,53.022, 42.981,95.997, 96.003,95.997
		c 53.016,0.00, 95.996-42.975, 95.996-95.997C 288.003,180.764, 285.972,170.021, 282.425,160.003z M 192.007,320.00
		c-8.844,0.00-16.001,7.165-16.001,16.002l0.00,31.996 c0.00,8.837, 7.158,16.002, 16.001,16.002c 8.83,0.00, 16.002-7.165, 16.002-16.002l0.00-31.996 
		C 208.009,327.165, 200.837,320.00, 192.007,320.00z M 78.869,282.511l-22.628,22.628c-6.251,6.251-6.251,16.377,0.00,22.628
		c 6.251,6.242, 16.377,6.242, 22.628,0.00l 22.628-22.628c 6.25-6.251, 6.25-16.377,0.00-22.628C 95.246,276.26, 85.12,276.26, 78.869,282.511z
		 M 64.007,191.999c0.00-8.837-7.165-16.002-16.002-16.002L 16.001,175.997 C 7.172,175.997,0.00,183.162,0.00,191.999
		c0.00,8.838, 7.173,16.002, 16.002,16.002l 32.004,0.00 C 56.842,208.001, 64.007,200.837, 64.007,191.999z M 192.007,224.003
		c 4.416,0.00, 8.002-3.586, 8.002-8.00l0.00-30.629 l 20.283,20.283c 3.125,3.125, 8.189,3.125, 11.314,0.00s 3.125-8.188,0.00-11.313l-33.941-33.942
		c-3.125-3.125-8.189-3.125-11.314,0.00l-33.942,33.942c-3.125,3.125-3.125,8.188,0.00,11.313c 3.126,3.125, 8.188,3.125, 11.314,0.00
		l 20.284-20.283l0.00,30.629 C 184.007,220.417, 187.585,224.003, 192.007,224.003z M 112.005,127.999l 159.996,0.00 
		c 8.838,0.00, 16.002-7.165, 16.002-16.002s-7.164-15.994-16.002-15.994L 112.005,96.003 c-8.837,0.00-16.002,7.157-16.002,15.994
		S 103.168,127.999, 112.005,127.999z" horiz-adv-x="384"  />
<glyph unicode="&#xe02a;" d="M 272.003,127.999L 111.999,127.999 c-8.83,0.00-15.995-7.165-15.995-16.002
				s 7.165-15.994, 15.995-15.994l 160.004,0.00 c 8.836,0.00, 16.002,7.157, 16.002,15.994S 280.839,127.999, 272.003,127.999z M 101.497,305.139
				l-22.628,22.628c-6.251,6.242-16.377,6.242-22.628,0.00c-6.25-6.251-6.25-16.377,0.00-22.628l 22.628-22.628
				c 6.251-6.251, 16.377-6.251, 22.628,0.00C 107.74,288.762, 107.74,298.888, 101.497,305.139z M 48.005,208.001L 16.001,208.001 
				C 7.165,208.001,0.00,200.837,0.00,191.999c0.00-8.837, 7.165-16.002, 16.002-16.002l 32.004,0.00 c 8.829,0.00, 16.002,7.165, 16.002,16.002
				C 64.007,200.837, 56.834,208.001, 48.005,208.001z M 367.999,208.001l-31.996,0.00 c-8.838,0.00-15.994-7.164-15.994-16.002
				c0.00-8.837, 7.156-16.002, 15.994-16.002l 31.996,0.00 c 8.844,0.00, 16.002,7.165, 16.002,16.002
				C 384.001,200.837, 376.843,208.001, 367.999,208.001z M 192.009,320.00c 8.828,0.00, 15.994,7.165, 15.994,16.002l0.00,31.996 
				c0.00,8.837-7.166,16.002-15.994,16.002c-8.846,0.00-16.002-7.165-16.002-16.002l0.00-31.996 C 176.006,327.165, 183.163,320.00, 192.009,320.00z
				 M 327.767,327.767c-6.242,6.242-16.385,6.242-22.627,0.00l-22.629-22.628c-6.242-6.251-6.242-16.377,0.00-22.628
				c 6.252-6.251, 16.385-6.251, 22.629,0.00l 22.627,22.628C 334.011,311.39, 334.011,321.516, 327.767,327.767z M 192.009,287.996
				c-53.023,0.00-96.005-42.975-96.005-95.997c0.00-11.235, 2.032-21.979, 5.579-31.996l 35.052,0.00 c-5.462,9.416-8.634,20.323-8.634,31.996
				c0.00,35.349, 28.659,64.00, 64.008,64.00c 35.34,0.00, 63.992-28.651, 63.992-64.00c0.00-11.673-3.172-22.58-8.627-31.996l 35.051,0.00 
				c 3.549,10.018, 5.58,20.761, 5.58,31.996C 288.005,245.021, 245.022,287.996, 192.009,287.996z M 192.009,158.003
				c 4.414,0.00, 7.992,3.578, 7.992,8.001l0.00,30.621 l 20.291-20.284c 3.119-3.125, 8.189-3.125, 11.314,0.00c 3.117,3.126, 3.117,8.189,0.00,11.314
				l-33.941,33.941c-3.125,3.125-8.197,3.125-11.314,0.00l-33.941-33.941c-3.126-3.125-3.126-8.188,0.00-11.314
				c 3.125-3.125, 8.188-3.125, 11.313,0.00l 20.284,20.284l0.00-30.621 C 184.007,161.581, 187.585,158.003, 192.009,158.003z" horiz-adv-x="384"  />
<glyph unicode="&#xe02b;" d="M 367.999,175.998l-31.996,0.00 c-8.838,0.00-16.004,7.164-16.004,16.002
		s 7.166,16.002, 16.004,16.002l 31.996,0.00 c 8.844,0.00, 16.002-7.164, 16.002-16.002S 376.843,175.998, 367.999,175.998z M 305.14,282.511
		c-6.252-6.251-16.387-6.251-22.629,0.00s-6.242,16.377,0.00,22.628l 22.629,22.628c 6.242,6.242, 16.377,6.242, 22.627,0.00
		c 6.242-6.251, 6.242-16.377,0.00-22.628L 305.14,282.511z M 282.425,160.004l-35.051,0.00 c 5.453,9.416, 8.625,20.322, 8.625,31.996
		c0.00,35.348-28.65,64.00-64.00,64.00c-35.339,0.00-64.00-28.651-64.00-64.00c0.00-11.674, 3.172-22.58, 8.634-31.996l-35.052,0.00 
		c-3.555,10.018-5.586,20.76-5.586,31.996c0.00,53.022, 42.99,95.997, 96.003,95.997c 53.023,0.00, 96.004-42.975, 96.004-95.997
		C 288.003,180.764, 285.972,170.021, 282.425,160.004z M 191.999,320.00c-8.836,0.00-15.994,7.165-15.994,16.002l0.00,31.996 
		c0.00,8.837, 7.158,16.002, 15.994,16.002c 8.838,0.00, 16.002-7.165, 16.002-16.002l0.00-31.996 C 208.001,327.166, 200.837,320.00, 191.999,320.00z
		 M 78.869,282.511l-22.628,22.628c-6.251,6.251-6.251,16.377,0.00,22.628c 6.243,6.242, 16.377,6.242, 22.628,0.00l 22.627-22.628
		c 6.244-6.251, 6.244-16.377,0.00-22.628C 95.246,276.26, 85.111,276.26, 78.869,282.511z M 64.00,192.00c0.00-8.838-7.165-16.002-15.994-16.002
		L 16.001,175.998 C 7.164,175.998,0.00,183.162,0.00,192.00s 7.164,16.002, 16.002,16.002l 32.004,0.00 C 56.834,208.002, 64.00,200.838, 64.00,192.00z M 111.998,128.00l 160.003,0.00 
		c 8.838,0.00, 16.002-7.166, 16.002-16.002c0.00-8.838-7.164-15.994-16.002-15.994L 111.998,96.004 c-8.829,0.00-16.002,7.156-16.002,15.994
		C 95.996,120.834, 103.168,128.00, 111.998,128.00z" horiz-adv-x="384"  />
<glyph unicode="&#xe02c;" d="M 253.594,218.511c-6.25-6.243-16.393-6.243-22.627,0.00
		c-6.252,6.251-6.252,16.385,0.00,22.628l 22.627,22.628c 6.235,6.25, 16.377,6.25, 22.629,0.00c 6.234-6.243, 6.234-16.377,0.00-22.628
		L 253.594,218.511z M 195.821,160.003c-11.079,19.112-31.691,32.004-55.366,32.004s-44.303-12.892-55.366-32.004L 50.037,160.003 
		c 13.189,37.263, 48.631,64.00, 90.418,64.00c 41.771,0.00, 77.229-26.737, 90.418-64.00L 195.821,160.003 z M 140.455,256.00c-8.846,0.00-16.002,7.165-16.002,16.002
		l0.00,32.004 c0.00,8.837, 7.156,15.994, 16.002,15.994c 8.829,0.00, 16.002-7.157, 16.002-15.994l0.00-32.004 C 156.457,263.165, 149.284,256.00, 140.455,256.00z
		 M 27.316,218.511L 4.688,241.139c-6.25,6.251-6.25,16.385,0.00,22.628c 6.252,6.25, 16.377,6.25, 22.629,0.00l 22.627-22.628
		c 6.251-6.243, 6.251-16.377,0.00-22.628C 43.693,212.268, 33.566,212.268, 27.316,218.511z M 60.445,128.007l 160.004,0.00 
		c 8.846,0.00, 16.002-7.164, 16.002-16.002c0.00-8.837-7.156-16.002-16.002-16.002L 60.445,96.003 c-8.83,0.00-16.002,7.165-16.002,16.002
		C 44.443,120.843, 51.615,128.007, 60.445,128.007z" horiz-adv-x="288"  />
<glyph unicode="&#xe02d;" d="M 96.004,116.105C 42.981,116.105,0.00,159.088,0.00,212.102
		c0.00,53.022, 42.981,96.005, 96.005,96.005c 6.039,0.00, 11.931-0.625, 17.658-1.695c-1.055-4.61-1.664-9.384-1.664-14.307
		c0.00-35.349, 28.66-64.001, 64.008-64.001c 4.922,0.00, 9.696,0.61, 14.307,1.665c 1.062-5.735, 1.688-11.619, 1.688-17.667
		C 192.001,159.088, 149.018,116.105, 96.004,116.105z M 81.698,274.445c-28.449-6.508-49.694-31.918-49.694-62.344
		c0.00-35.34, 28.652-64.00, 64.001-64.00c 30.418,0.00, 55.826,21.245, 62.336,49.694C 119.499,205.031, 88.924,235.605, 81.698,274.445z" horiz-adv-x="192"  />
<glyph unicode="&#xe02e;" d="M 96.003,116.105c-53.022,0.00-96.004,42.982-96.004,95.996
		c0.00,53.022, 42.981,96.005, 96.004,96.005c 53.015,0.00, 95.997-42.982, 95.997-96.005C 192.00,159.088, 149.018,116.105, 96.003,116.105z" horiz-adv-x="192"  />
<glyph unicode="&#xe02f;" d="M 95.996,116.105c 53.023,0.00, 96.005,42.982, 96.005,95.996
		c0.00,53.022-42.981,96.005-96.005,96.005C 42.982,308.106,0.00,265.124,0.00,212.102C0.00,159.088, 42.982,116.105, 95.996,116.105z
		 M 80.002,274.008c 5.119,1.321, 10.463,2.095, 15.994,2.095c 35.349,0.00, 64.001-28.652, 64.001-64.001c0.00-35.34-28.652-64.00-64.001-64.00
		c-5.531,0.00-10.875,0.781-15.994,2.103c 27.59,7.11, 47.999,32.09, 47.999,61.897C 128.001,241.918, 107.592,266.891, 80.002,274.008z" horiz-adv-x="192"  />
<glyph unicode="&#xe030;" d="M 95.997,116.105c-53.021,0.00-95.996,42.982-95.996,95.996
		c0.00,53.022, 42.975,96.005, 95.996,96.005c 53.022,0.00, 96.004-42.982, 96.004-96.005C 192.001,159.088, 149.02,116.105, 95.997,116.105z
		 M 95.997,148.102c 35.349,0.00, 64.00,28.66, 64.00,64.00c0.00,35.349-28.651,64.001-64.00,64.001L 95.997,148.102 z" horiz-adv-x="192"  />
<glyph unicode="&#xe031;" d="M 96.00,116.042c-53.022,0.00-95.996,42.981-95.996,96.004
		c0.00,53.015, 42.974,95.996, 95.996,95.996s 95.997-42.981, 95.997-95.996C 191.997,159.023, 149.022,116.042, 96.00,116.042z M 96.00,276.038
		c-17.674,0.00-32.004-28.651-32.004-63.992c0.00-35.349, 14.33-64.00, 32.004-64.00c 35.349,0.00, 64.00,28.651, 64.00,64.00
		C 160.00,247.387, 131.349,276.038, 96.00,276.038z" horiz-adv-x="192"  />
<glyph unicode="&#xe032;" d="M 96.005,116.042C 42.982,116.042,0.00,159.023,0.00,212.046
		c0.00,53.015, 42.982,95.996, 96.005,95.996c 53.021,0.00, 95.996-42.981, 95.996-95.996C 192.001,159.023, 149.026,116.042, 96.005,116.042z
		 M 96.005,276.038c-35.349,0.00-64.009-28.651-64.009-63.992c0.00-35.349, 28.66-64.00, 64.009-64.00c 35.348,0.00, 63.992,28.651, 63.992,64.00
		C 159.997,247.387, 131.353,276.038, 96.005,276.038z" horiz-adv-x="192"  />
<glyph unicode="&#xe033;" d="M 96.004,116.05c 53.015,0.00, 95.996,42.981, 95.996,96.004
		c0.00,53.015-42.981,95.996-95.996,95.996C 42.981,308.05,0.00,265.068,0.00,212.054C0.00,159.031, 42.981,116.05, 96.004,116.05z M 96.004,276.046
		c 17.674,0.00, 31.996-28.651, 31.996-63.992c0.00-35.349-14.322-64.00-31.996-64.00c-35.348,0.00-64.008,28.651-64.008,64.00
		C 31.996,247.395, 60.656,276.046, 96.004,276.046z" horiz-adv-x="192"  />
<glyph unicode="&#xe034;" d="M 96.003,116.05c 53.015,0.00, 95.998,42.981, 95.998,96.004
		c0.00,53.015-42.983,95.996-95.998,95.996C 42.981,308.05,0.00,265.068,0.00,212.054C0.00,159.031, 42.981,116.05, 96.003,116.05z M 96.003,148.054
		c-35.348,0.00-64.008,28.651-64.008,64.00c0.00,35.341, 28.66,63.992, 64.008,63.992L 96.003,148.054 z" horiz-adv-x="192"  />
<glyph unicode="&#xe035;" d="M 96.00,116.05c-53.014,0.00-96.004,42.981-96.004,96.004
		c0.00,53.015, 42.99,95.996, 96.004,95.996c 53.022,0.00, 96.004-42.981, 96.004-95.996C 192.005,159.031, 149.023,116.05, 96.00,116.05z
		 M 112.002,273.952c-5.125,1.32-10.462,2.094-16.002,2.094c-35.34,0.00-64.00-28.651-64.00-63.992c0.00-35.349, 28.66-64.00, 64.00-64.00
		c 5.54,0.00, 10.877,0.773, 16.002,2.094c-27.589,7.118-47.998,32.09-47.998,61.906C 64.004,241.862, 84.414,266.834, 112.002,273.952z" horiz-adv-x="192"  />
<glyph unicode="&#xe036;" d="M 162.568,238.189l-15.666-9.04
		c 1.508-5.454, 2.383-11.165, 2.383-17.096c0.00-5.938-0.875-11.649-2.383-17.104l 15.666-9.04c 7.649-4.423, 10.274-14.205, 5.852-21.862
		c-4.414-7.649-14.197-10.274-21.854-5.853l-15.635,9.024c-8.025-8.157-18.221-14.126-29.645-17.072l0.00-18.096 
		c0.00-8.837-7.165-16.002-16.002-16.002c-8.838,0.00-16.002,7.165-16.002,16.002l0.00,18.096 c-11.424,2.946-21.628,8.915-29.645,17.072
		l-15.635-9.024c-7.657-4.422-17.439-1.797-21.854,5.853c-4.423,7.657-1.797,17.439, 5.853,21.862l 15.666,9.04
		c-1.516,5.454-2.383,11.165-2.383,17.104c0.00,5.931, 0.867,11.642, 2.383,17.096l-15.666,9.04c-7.649,4.423-10.275,14.205-5.853,21.862
		c 4.415,7.649, 14.197,10.274, 21.854,5.853l 15.635-9.024c 8.017,8.157, 18.221,14.126, 29.645,17.072l0.00,18.096 
		c0.00,8.837, 7.164,16.002, 16.002,16.002c 8.837,0.00, 16.002-7.165, 16.002-16.002l0.00-18.096 c 11.424-2.946, 21.619-8.915, 29.645-17.072
		l 15.635,9.024c 7.656,4.422, 17.439,1.797, 21.854-5.853C 172.842,252.395, 170.217,242.612, 162.568,238.189z M 85.285,244.05
		c-17.674,0.00-32.004-14.33-32.004-31.996c0.00-17.674, 14.33-32.004, 32.004-32.004s 31.996,14.33, 31.996,32.004
		C 117.281,229.72, 102.958,244.05, 85.285,244.05z" horiz-adv-x="192"  />
<glyph unicode="&#xe037;" d="M 320.001,320.003L 16.002,320.003 C 7.165,320.003,0.00,327.168,0.00,335.998
		C0.00,344.834, 7.165,352.00, 16.002,352.00l 303.999,0.00 c 8.837,0.00, 16.002-7.166, 16.002-16.002C 336.003,327.168, 328.838,320.003, 320.001,320.003z
		 M 32.004,287.999l 239.999,0.00 c 8.837,0.00, 16.002-7.165, 16.002-16.002c0.00-8.829-7.165-15.994-16.002-15.994L 32.004,256.003 
		c-8.837,0.00-16.002,7.165-16.002,15.994C 16.002,280.834, 23.167,287.999, 32.004,287.999z M 128.00,223.999l 176.007,0.00 
		c 8.837,0.00, 15.994-7.165, 15.994-15.994c0.00-8.837-7.157-16.002-15.994-16.002L 128.00,192.003 c-8.837,0.00-15.994,7.165-15.994,16.002
		C 112.006,216.834, 119.163,223.999, 128.00,223.999z M 144.002,95.999L 192.00,95.999 c 8.838,0.00, 16.002-7.165, 16.002-15.995
		c0.00-8.836-7.164-16.002-16.002-16.002l-47.998,0.00 c-8.836,0.00-16.002,7.166-16.002,16.002C 128.00,88.834, 135.166,95.999, 144.002,95.999z
		 M 152.004,144.005c0.00,8.829, 7.164,15.994, 16.002,15.994l 111.998,0.00 c 8.837,0.00, 16.002-7.165, 16.002-15.994
		c0.00-8.837-7.165-16.002-16.002-16.002L 168.006,128.003 C 159.168,128.003, 152.004,135.168, 152.004,144.005z" horiz-adv-x="352"  />
<glyph unicode="&#xe038;" d="M 64.00,64.002c-35.349,0.00-64.00,28.652-64.00,64.001
		c0.00,16.205, 6.071,30.957, 15.994,42.231L 15.994,304.001 C 15.994,330.513, 37.489,352.00, 64.00,352.00c 26.503,0.00, 47.999-21.487, 47.999-47.999l0.00-133.767 
		C 121.92,158.96, 128.00,144.208, 128.00,128.003C 128.00,92.654, 99.34,64.002, 64.00,64.002z M 79.994,155.568l0.00,34.341 l0.00,82.096 l0.00,31.996 
		c0.00,8.837-7.165,16.002-15.994,16.002c-8.837,0.00-16.002-7.165-16.002-16.002l0.00-31.996 l0.00-82.096 l0.00-34.341 
		c-9.524-5.547-16.002-15.752-16.002-27.565c0.00-17.675, 14.33-31.996, 32.004-31.996c 17.667,0.00, 31.996,14.321, 31.996,31.996
		C 95.996,139.816, 89.518,150.021, 79.994,155.568z" horiz-adv-x="128"  />
<glyph unicode="&#xe039;" d="M 64.00,64.002c-35.34,0.00-64.00,28.652-64.00,64.001
		c0.00,16.205, 6.072,30.957, 16.002,42.231L 16.002,304.001 C 16.001,330.513, 37.498,352.00, 64.00,352.00c 26.512,0.00, 48.007-21.487, 48.007-47.999l0.00-133.767 
		C 121.929,158.96, 128.00,144.208, 128.00,128.003C 128.00,92.654, 99.348,64.002, 64.00,64.002z M 80.001,155.568l0.00,34.341 l0.00,82.096 l0.00,31.996 
		c0.00,8.837-7.164,16.002-16.002,16.002c-8.836,0.00-15.994-7.165-15.994-16.002l0.00-31.996 l0.00-82.096 l0.00-34.341 
		c-9.523-5.547-16.002-15.752-16.002-27.565c0.00-17.675, 14.33-31.996, 31.996-31.996c 17.675,0.00, 32.005,14.321, 32.005,31.996
		C 96.004,139.816, 89.527,150.021, 80.001,155.568z M 64.00,104.00c-13.251,0.00-23.994,10.751-23.994,24.003
		c0.00,13.251, 10.743,24.003, 23.994,24.003c 13.26,0.00, 24.004-10.752, 24.004-24.003C 88.003,114.751, 77.259,104.00, 64.00,104.00z" horiz-adv-x="128"  />
<glyph unicode="&#xe03a;" d="M 63.992,64.002C 28.645,64.002,0.00,92.654,0.00,128.003
		c0.00,16.205, 6.063,30.957, 16.002,42.231L 16.002,304.001 c0.00,26.512, 21.487,47.999, 47.99,47.999c 26.52,0.00, 48.006-21.487, 48.006-47.999l0.00-133.767 
		C 121.922,158.96, 128.00,144.208, 128.00,128.003C 128.00,92.654, 99.341,64.002, 63.992,64.002z M 79.994,155.568l0.00,34.341 l0.00,82.096 l0.00,31.996 
		c0.00,8.837-7.156,16.002-16.002,16.002c-8.829,0.00-16.002-7.165-16.002-16.002l0.00-31.996 l0.00-82.096 l0.00-34.341 
		c-9.517-5.547-15.986-15.752-15.986-27.565c0.00-17.675, 14.314-31.996, 31.988-31.996s 32.004,14.321, 32.004,31.996
		C 95.996,139.816, 89.527,150.021, 79.994,155.568z M 63.992,104.00c-13.252,0.00-23.987,10.751-23.987,24.003
		c0.00,10.438, 6.688,19.221, 15.986,22.534l0.00,41.466 l 16.003,0.00 l0.00-41.466 c 9.297-3.313, 16.002-12.096, 16.002-22.534
		C 87.996,114.751, 77.244,104.00, 63.992,104.00z" horiz-adv-x="128"  />
<glyph unicode="&#xe03b;" d="M 64.00,63.995c-35.349,0.00-64.00,28.66-64.00,64.00
		c0.00,16.205, 6.071,30.965, 15.994,42.239l0.00,133.76 C 15.994,330.505, 37.489,352.00, 64.00,352.00c 26.503,0.00, 47.998-21.495, 47.998-48.006l0.00-133.76 
		C 121.929,158.96, 128.00,144.20, 128.00,127.995C 128.00,92.655, 99.349,63.995, 64.00,63.995z M 80.002,155.562l0.00,34.34 l0.00,82.097 l0.00,31.996 
		c0.00,8.837-7.165,16.002-16.002,16.002s-16.002-7.165-16.002-16.002l0.00-31.996 l0.00-82.097 l0.00-34.34 c-9.524-5.548-16.002-15.752-16.002-27.566
		c0.00-17.674, 14.33-31.996, 32.004-31.996c 17.675,0.00, 32.004,14.322, 32.004,31.996C 96.004,139.81, 89.519,150.014, 80.002,155.562z M 64.00,104.00
		c-13.251,0.00-24.003,10.744-24.003,23.995c0.00,10.438, 6.704,19.229, 16.002,22.534L 55.999,232.50 l 16.002,0.00 l0.00-81.971 
		c 9.298-3.305, 16.002-12.096, 16.002-22.534C 88.003,114.744, 77.252,104.00, 64.00,104.00z" horiz-adv-x="128"  />
</font>
</defs>
</svg>
